BitTorrentTracker PerecTracker.org
BitTorrentTracker PerecTracker.org
    
Регистрация  ·  Вход
 
 · 
Забыли пароль?

  • Местный колорит / Couleur locale (Колин Серро / Coline Serreau, Самюэль Тасинаж / Samuel Tasinaje) [2014, Франция, драма, комедия, семейный, DVBRip] VO + Original Fre

    Ответить на тему
     
    Автор Сообщение

    rechyn

    Создавать темы 14-Мар-2016 00:27

           

    [Цитировать]

    Местный колорит / Couleur locale
    Страна: Франция
    Жанр: драма, комедия, семейный
    Год выпуска: 2014
    Продолжительность: 01:26:06
    Перевод: Одноголосый закадровый по титрам (О. Першина)
    Оригинальная аудиодорожка: французский
    Режиссер: Колин Серро / Coline Serreau, Самюэль Тасинаж / Samuel Tasinaje
    В ролях: Изабель Нанти / Isabelle Nanty, Валантен Бельгард-Шаппе / Valentin Bellegarde-Chappe, Александр Медведев / Alexandre Medvedev, Кристиан Буйетт / Christian Bouillette
    Описание: У Марианны Риблон небольшой бизнес на юге Франции. Она вдова и свою дочь Шарлотту не видела уже почти 15 лет. Она живёт жизнью, лишённой любви, и полностью отдаёт себя общественным делам, являясь активным член городского совета с ярко выраженными консервативными и расистскими взглядами. Однажды её дочь сообщает по телефону, что Марианна давно бабушка, а её внуку Николя уже 12 лет. Причём Николя отправляется пожить у бабушки, пока Шарлотта будет проходить курс терапии от лейкемии. На вокзале бабушка с внуком едва узнали друг друга, ведь внук оказался мулатом...
    Сэмпл: http://multi-up.com/1092923
    Качество видео: DVBRip
    Формат видео: AVI
    Видео: 720x400 (1.80:1), 25 fps, XviD build 50 ~2073 kbps avg, 0.29 bit/pixel
    Аудио 1: 48 kHz, Microsoft MPEG, 2 ch, ~192.00 kbps avg(Русский)
    Аудио 2: 48 kHz, Microsoft MPEG, 2 ch, ~192.00 kbps avg(Французский)

    MediaInfo

    Общее
    Полное имя : F:\С моей озвучкой\Местный колорит.avi
    Формат : AVI
    Формат/Информация : Audio Video Interleave
    Размер файла : 1,49 Гбайт
    Продолжительность : 1 ч. 26 м.
    Общий поток : 2473 Кбит/сек
    Программа кодирования : VirtualDubModRus 1.5.10.2 (build 2542/release)
    Библиотека кодирования : VirtualDubMod build 2542/release
    Видео
    Идентификатор : 0
    Формат : MPEG-4 Visual
    Профиль формата : Advanced Simple@L5
    Параметр BVOP формата : Нет
    Параметр QPel формата : Нет
    Параметр GMC формата : Без точки перехода
    Параметр матрицы формата : Выборочная
    Идентификатор кодека : XVID
    Идентификатор кодека/Подсказка : XviD
    Продолжительность : 1 ч. 26 м.
    Битрейт : 2074 Кбит/сек
    Ширина : 720 пикселей
    Высота : 400 пикселей
    Соотношение сторон : 16:9
    Частота кадров : 25,000 кадров/сек
    Цветовое пространство : YUV
    Субдискретизация насыщенности : 4:2:0
    Битовая глубина : 8 бит
    Тип развёртки : Прогрессивная
    Метод сжатия : С потерями
    Бит/(Пиксели*Кадры) : 0.288
    Размер потока : 1,25 Гбайт (84%)
    Библиотека кодирования : XviD 1.2.1 (UTC 2008-12-04)
    Аудио #1
    Идентификатор : 1
    Формат : MPEG Audio
    Версия формата : Version 1
    Профиль формата : Layer 2
    Идентификатор кодека : 50
    Продолжительность : 1 ч. 26 м.
    Вид битрейта : Постоянный
    Битрейт : 192 Кбит/сек
    Каналы : 2 канала
    Частота : 48,0 КГц
    Метод сжатия : С потерями
    Размер потока : 118 Мбайт (8%)
    Выравнивание : Соединение по промежуткам
    Продолжительность промежутка : 40 мс. (1,00 видеокадр)
    Время предзагрузки промежутка : 504 мс.
    Язык : Francais
    Аудио #2
    Идентификатор : 2
    Формат : MPEG Audio
    Версия формата : Version 1
    Профиль формата : Layer 2
    Режим : Joint stereo
    Расширение режима : Intensity Stereo + MS Stereo
    Идентификатор кодека : 50
    Продолжительность : 1 ч. 26 м.
    Вид битрейта : Постоянный
    Битрейт : 192 Кбит/сек
    Каналы : 2 канала
    Частота : 48,0 КГц
    Метод сжатия : С потерями
    Размер потока : 118 Мбайт (8%)
    Выравнивание : Соединение по промежуткам
    Продолжительность промежутка : 40 мс. (1,00 видеокадр)
    Время предзагрузки промежутка : 504 мс.

    Скриншоты

    Скачать .torrent

    Скачать торрент-файл бесплатно и на максимальной скорости!

    Как скачивать? · Что такое торрент? · Рейтинг и ограничения

    !ВНИМАНИЕ!
    Сайт не распространяет и не хранит электронные версии произведений, а занимается лишь лишь предоставлением доступа к создаваемому пользователями каталогу ссылок на торрент-файлы, которые содержат только списки хеш-сумм, убедительная просьба с жалобами обращаться напрямую к пользователю. Файлы для обмена на трекере предоставлены пользователями сайта, и администрация не несёт ответственности за их содержание. Просьба не заливать файлы, защищенные авторскими правами, а также файлы нелегального содержания!


    _________________
    [Профиль] [ЛС]
    Показать сообщения:    
    Ответить на тему

    Текущее время: Сегодня, в 10:12

    Часовой пояс: GMT + 2



    Вы не можете начинать темы
    Вы не можете отвечать на сообщения
    Вы не можете редактировать свои сообщения
    Вы не можете удалять свои сообщения
    Вы не можете голосовать в опросах
    Вы не можете прикреплять файлы к сообщениям
    Вы не можете скачивать файлы