BitTorrentTracker PerecTracker.org
BitTorrentTracker PerecTracker.org
    
Регистрация  ·  Вход
 
 · 
Забыли пароль?

  • Политические игры / Manipulations / State Conspiracy (Лоран Эрбье / Laurent Herbiet) [2012, Франция, политический триллер, DVB] Original (Fre) + Sub (Rus, Eng, Fre, Deu)

    Ответить на тему
     
    Автор Сообщение

    rechyn

    Создавать темы 14-Мар-2016 00:27

           

    [Цитировать]

    Политические игры
    Manipulations-Страна: Франция
    Жанр: политический триллер
    Год выпуска: 2012
    Продолжительность: 01:35:18
    Перевод: Субтитры (перевод И.Рыбкиной, Éclair Group)
    Cубтитры: русские, английские, французские, немецкие, нидерландские, румынские
    Оригинальная аудиодорожка: французский
    Режиссер: Лоран Эрбье / Laurent HerbietВ ролях: Ламбер Вильсон / Lambert Wilson (Franck Barrot), Дидье Безак / Didier Bezace (Paul Simoni), Эрик Каравака / Éric Caravaca (Francois Lecuyer), Зинедин Суалем / Zinedine Soualem (Commissaire Brindier), Арие Эльмалех / Arié Elmaleh (Gamal Zemouri), Сабрина Уазани / Sabrina Ouazani (Philippine Maklouf)
    Описание: Организация антиглобалистов угрожает провести серию террористических актов в преддверии очередных президентских выборов. Если правительство не заплатит выкуп, они грозят взорвать бомбы, заложенные на железных дорогах Франции. Министерству внутренних дел не остается ничего другого, как привлечь к делу Франка Баро, известного своими нестандартными методами нейтрализации вооруженных формирований… Франк обнаруживает наличие заговора на высшем государственном уровне…
    Доп. информация: Hot Bird (13.0°E) TV5MONDE Europe DVB-S
    Награды: приз за лучший телефильм Festival de la fiction TV de La Rochelle 2012; номинация Prix Europa 2012 на лучший художественный телефильм; 3 номинации Monte-Carlo TV Festival 2013 (лучший режиссер, "Золотая Нимфа" за лучший телефильм, "Золотая нимфа" лучшему актеру - Lambert Wilson).

    Качество видео: DVB
    Формат видео: TS
    Видео: MPEG Video 2, 720x576@1024x576 (16:9), 25 fps, ~3253 kbps avg, 0.314 bit/pixel
    Аудио: MPEG Audio 2, 2 ch, 48 kHz, 192 kbps - французский
    Формат субтитров: PGS

    MediaInfo

    GeneralID : 1 (0x1)Complete name : [apreder]Manipulations(2012)DVB.tsFormat : MPEG-TSFile size : 2.41 GiBDuration : 1h 35mnOverall bit rate mode : VariableOverall bit rate : 3 626 KbpsMaximum Overall bit rate : 35.5 Mbps
    VideoID : 4113 (0x1011)Menu ID : 1 (0x1)Format : MPEG VideoFormat version : Version 2Format profile : Main@MainFormat settings, BVOP : YesFormat settings, Matrix : CustomFormat settings, GOP : VariableFormat settings, picture structure : FrameCodec ID : 2Duration : 1h 35mnBit rate mode : VariableBit rate : 3 253 KbpsWidth : 720 pixelsHeight : 576 pixelsDisplay aspect ratio : 16:9Frame rate : 25.000 fpsStandard : PALColor space : YUVChroma subsampling : 4:2:0Bit depth : 8 bitsScan type : InterlacedScan order : Top Field FirstCompression mode : LossyBits/(Pixel*Frame) : 0.314Time code of first frame : 00:00:00:00Time code source : Group of pictures headerGOP, Open/Closed : OpenGOP, Open/Closed of first frame : ClosedStream size : 2.17 GiB (90%)
    AudioID : 4352 (0x1100)Menu ID : 1 (0x1)Format : MPEG AudioFormat version : Version 1Format profile : Layer 2Mode : Joint stereoMode extension : Intensity Stereo + MS StereoCodec ID : 4Duration : 1h 35mnBit rate mode : ConstantBit rate : 192 KbpsChannel(s) : 2 channelsSampling rate : 48.0 KHzCompression mode : LossyStream size : 131 MiB (5%)Language : French
    Text #1ID : 4608 (0x1200)Menu ID : 1 (0x1)Format : PGSCodec ID : 144Duration : 1h 35mnDelay relative to video : 4s 240msLanguage : Russian
    Text #2ID : 4609 (0x1201)Menu ID : 1 (0x1)Format : PGSCodec ID : 144Duration : 1h 35mnDelay relative to video : 4s 440msLanguage : English
    Text #3ID : 4610 (0x1202)Menu ID : 1 (0x1)Format : PGSCodec ID : 144Language : French
    Text #4ID : 4611 (0x1203)Menu ID : 1 (0x1)Format : PGSCodec ID : 144Duration : 1h 35mnDelay relative to video : 4s 240msLanguage : German
    Text #5ID : 4612 (0x1204)Menu ID : 1 (0x1)Format : PGSCodec ID : 144Duration : 1h 35mnDelay relative to video : 4s 240msLanguage : Dutch
    Text #6ID : 4613 (0x1205)Menu ID : 1 (0x1)Format : PGSCodec ID : 144Delay relative to video : 4s 240msLanguage : Romanian

    Скриншот c названием фильма

    Скриншоты

    Резервные скриншоты


    -
    Скачать .torrent

    Скачать торрент-файл бесплатно и на максимальной скорости!

    Как скачивать? · Что такое торрент? · Рейтинг и ограничения

    !ВНИМАНИЕ!
    Сайт не распространяет и не хранит электронные версии произведений, а занимается лишь лишь предоставлением доступа к создаваемому пользователями каталогу ссылок на торрент-файлы, которые содержат только списки хеш-сумм, убедительная просьба с жалобами обращаться напрямую к пользователю. Файлы для обмена на трекере предоставлены пользователями сайта, и администрация не несёт ответственности за их содержание. Просьба не заливать файлы, защищенные авторскими правами, а также файлы нелегального содержания!


    _________________
    [Профиль] [ЛС]
    Показать сообщения:    
    Ответить на тему

    Текущее время: Сегодня, в 02:36

    Часовой пояс: GMT + 2



    Вы не можете начинать темы
    Вы не можете отвечать на сообщения
    Вы не можете редактировать свои сообщения
    Вы не можете удалять свои сообщения
    Вы не можете голосовать в опросах
    Вы не можете прикреплять файлы к сообщениям
    Вы не можете скачивать файлы