BitTorrentTracker PerecTracker.org
BitTorrentTracker PerecTracker.org
    
Регистрация  ·  Вход
 
 · 
Забыли пароль?

  • Убийственная мультипликация / Killer Toon (Ён-кён Ким / Yong-Kyoon Kim) [2013, Южная Корея, ужасы, триллер, BDRip 720p] DVO (DeadSno & den904) + Sub Eng

    Ответить на тему
     
    Автор Сообщение

    Columb

    Создавать темы 11-Янв-2014 11:45

           

    [Цитировать]

    Убийственная мультипликация / Killer Toon
    Страна: Южная Корея
    Жанр: ужасы, триллер
    Год выпуска: 2013
    Продолжительность: 1:44:07
    Перевод: Любительский (двухголосый закадровый) DeadSno & den904
    Cубтитры: английские
    Режиссер: Ён-кён Ким / Yong-Kyoon Kim
    В ролях: Ли Си Ён, Ом Ки Чжун, Ким Хён У, Хэ-хё Квон, Ох Кван Рок
    Описание: Популярный художник комикса ужасов Чжи Юн считает, что жизнь подражает ее работам, когда ее издатель оказывается мертвым, точно так же, как девушка изобразила жертву в своем последнем комиксе. Чжи Юн попадает под подозрение, но у нее железное алиби. Тогда все решают, что смерть издателя была самоубийством или убийством подражателя. Но, когда происходит серия убийств, напоминающих комиксы Чжи Юн, детектив Ли Ки Чхоль начинает расследование и оказывается близок к страшной разгадке…
    Дополнительная информация: перевод на русский язык Antonio, работа со звуком КОЛОБОК
    Сэмпл: http://multi-up.com/939051
    Тип релиза: BDRip 720p
    Контейнер: MKV
    Видео: AVC, 1280х690, 1.85:1, 5 370 Kbps, 23.976 fps
    Аудио: русский, AC-3, 2 channels, 48.0 KHz, 192 Kbps
    Аудио 2: Корейский / оригинальный, DTS, 6 channels, 48.0 KHz, 1 509 Kbps
    Формат субтитров: softsub (SRT)

    Другие обложки

    MediaInfo

    Format : Matroska
    Format version : Version 4 / Version 2
    File size : 5.14 GiB
    Duration : 1h 44mn
    Overall bit rate : 7 068 Kbps
    Movie name : СПАМ
    Encoded date : UTC 2013-10-26 13:48:48
    Writing application : mkvmerge v6.5.0 ('Isn't she lovely') built on Oct 20 2013 12:50:05
    Writing library : libebml v1.3.0 libmatroska v1.4.1
    Video
    ID : 1
    Format : AVC
    Format/Info : Advanced Video Codec
    Format profile : High@L4.1
    Format settings, CABAC : Yes
    Format settings, ReFrames : 5 frames
    Codec ID : V_MPEG4/ISO/AVC
    Duration : 1h 44mn
    Bit rate : 5 370 Kbps
    Width : 1 280 pixels
    Height : 690 pixels
    Display aspect ratio : 1.85:1
    Frame rate mode : Constant
    Frame rate : 23.976 fps
    Color space : YUV
    Chroma subsampling : 4:2:0
    Bit depth : 8 bits
    Scan type : Progressive
    Bits/(Pixel*Frame) : 0.254
    Stream size : 3.80 GiB (74%)
    Title : СПАМ
    Writing library : x264 core 125 r2208 d9d2288
    Encoding settings : cabac=1 / ref=5 / deblock=1:-3:-3 / analyse=0x3:0x113 / me=umh / subme=10 / psy=1 / psy_rd=1.00:0.05 / mixed_ref=1 / me_range=32 / chroma_me=1 / trellis=2 / 8x8dct=1 / cqm=0 / deadzone=21,11 / fast_pskip=0 / chroma_qp_offset=-2 / threads=12 / lookahead_threads=2 / sliced_threads=0 / nr=0 / decimate=1 / interlaced=0 / bluray_compat=0 / constrained_intra=0 / bframes=5 / b_pyramid=2 / b_adapt=2 / b_bias=0 / direct=3 / weightb=1 / open_gop=0 / weightp=2 / keyint=250 / keyint_min=23 / scenecut=40 / intra_refresh=0 / rc=2pass / mbtree=0 / bitrate=5370 / ratetol=1.0 / qcomp=0.70 / qpmin=0 / qpmax=69 / qpstep=4 / cplxblur=20.0 / qblur=0.5 / ip_ratio=1.40 / pb_ratio=1.30 / aq=2:1.00
    Language : English
    Default : Yes
    Forced : No
    Audio #1
    ID : 2
    Format : AC-3
    Format/Info : Audio Coding 3
    Mode extension : CM (complete main)
    Format settings, Endianness : Big
    Codec ID : A_AC3
    Duration : 1h 44mn
    Bit rate mode : Constant
    Bit rate : 192 Kbps
    Channel(s) : 2 channels
    Channel positions : Front: L R
    Sampling rate : 48.0 KHz
    Bit depth : 16 bits
    Compression mode : Lossy
    Stream size : 143 MiB (3%)
    Title : DeadSno & den904
    Language : Russian
    Default : Yes
    Forced : Yes
    Audio #2
    ID : 3
    Format : DTS
    Format/Info : Digital Theater Systems
    Mode : 16
    Format settings, Endianness : Big
    Codec ID : A_DTS
    Duration : 1h 44mn
    Bit rate mode : Constant
    Bit rate : 1 509 Kbps
    Channel(s) : 6 channels
    Channel positions : Front: L C R, Side: L R, LFE
    Sampling rate : 48.0 KHz
    Bit depth : 24 bits
    Compression mode : Lossy
    Stream size : 1.10 GiB (21%)
    Language : Korean
    Default : No
    Forced : No
    Text
    ID : 4
    Format : UTF-8
    Codec ID : S_TEXT/UTF8
    Codec ID/Info : UTF-8 Plain Text
    Language : English
    Default : No
    Forced : No

    Скриншоты

    Скачать .torrent

    Скачать торрент-файл бесплатно и на максимальной скорости!

    Как скачивать? · Что такое торрент? · Рейтинг и ограничения

    !ВНИМАНИЕ!
    Сайт не распространяет и не хранит электронные версии произведений, а занимается лишь лишь предоставлением доступа к создаваемому пользователями каталогу ссылок на торрент-файлы, которые содержат только списки хеш-сумм, убедительная просьба с жалобами обращаться напрямую к пользователю. Файлы для обмена на трекере предоставлены пользователями сайта, и администрация не несёт ответственности за их содержание. Просьба не заливать файлы, защищенные авторскими правами, а также файлы нелегального содержания!

    [Профиль] [ЛС]
    Показать сообщения:    
    Ответить на тему

    Текущее время: Сегодня, в 08:04

    Часовой пояс: GMT + 2



    Вы не можете начинать темы
    Вы не можете отвечать на сообщения
    Вы не можете редактировать свои сообщения
    Вы не можете удалять свои сообщения
    Вы не можете голосовать в опросах
    Вы не можете прикреплять файлы к сообщениям
    Вы не можете скачивать файлы