BitTorrentTracker PerecTracker.org
BitTorrentTracker PerecTracker.org
    
Регистрация  ·  Вход
 
 · 
Забыли пароль?

  • Нюхач «Каждое преступление имеет свой запах…» / Сезон: 1-2 / Серии: 1-16 из 16 (Артем Литвиненко) [2013-2015, детектив, драма, криминал, WEBRip]

    Ответить на тему
     
    Автор Сообщение

    rechyn

    Создавать темы 13-Мар-2016 22:36

           

    [Цитировать]

    Нюхач «Каждое преступление имеет свой запах…»Год выпуска: 2013-2015
    Производство: «Film.ua Production»
    Жанр: детектив, драма, криминал
    Продолжительность: 00:52:00
    Субтитры: Нет
    Режиссёр: Артем Литвиненко
    В ролях: Кирилл Кяро, Иван Оганесян, Николай Чиндяйкин, Агне Грудите, Мария Аниканова, Нина Гогаева, Павел Кузьмин, Сергей Юшкевич, Игорь Ботвин, Александр Фисенко, Денис Мартынов (II), Алексей Зорин, Станислав Москвин, Вадим Лялько, Владимир Коваль (II), Татьяна Комарова, Елена Сикорская, Александр Зиневич, Сергей Лесков, Олег Ким (IV), Виктор Щур, Артём Червоношеенко, Виталий Копилец, Игорь Дяченко, Александр Мартыщенко, Александр Остапенко, Евгений Вашетин, Роман Джура, Константин Пустовалов, Артем Каюн, Алан Блажевич, Кристина Казинская, Сергей Карякин, Сергей Иванюк, Николай Рытенко, Андрей Финягин, Любовь Виролайнен мл., Людмила Харитонова, Григорий Багров, Игорь Головин, Антон Кукушкин, Владимир Балдов
    Описание: Его зовут Нюхач. Он обладает сверхчувствительным обонянием, для него не существует тайн и нераскрываемых преступлений. По запаху Нюхач может рассказать все и даже больше о любом человеке: что он ел, с кем он спал, есть ли у него алиби. Уникальная способность Нюхача — его дар и проклятие одновременно.
    С одной стороны, он раскрывает самые изощренные и запутанные преступления, знает все сокровенные тайны политиков, бизнесменов и криминальных авторитетов. С другой — Нюхач абсолютно беззащитен перед окружающим миром, переполненным всевозможными запахами. Он не умеет строить отношения ни с женщинами, ни с близкими людьми, потому что знает о них всё: ему невозможно сделать сюрприз, его нельзя обмануть, любой посторонний запах оттолкнет его от самого романтического свидания. У него сложная, но интересная жизнь…
    Сценарий Артем Литвиненко, Андрей Бабик. Продюсер Виктор Мирский, Андрей Ризванюк. Оператор Андрей Лисецкий. Композитор Никита Моисеев. Киностудия Film.ua.-Доп. информация: Реклама отсутствует!-Все раздачи сериала:
    Сэмпл:
    Качество: WEBRip
    Формат: AVI
    Видео кодек: XviD
    Аудио кодек: MP3
    Видео: 720x400, 25 fps, XviD, ~1600 kbps, 0.229 bit/pixel
    Аудио: 48 kHz, MPEG Layer 3, 2 ch, 192 kbps

    MI

    Общее
    Полное имя : I:\001\Нюхач, Сезон 1-2 (2013-2015) WEB-DLRip\Нюхач.(16.seriya).2015.XviD.WEB-DLRip.by.simka.avi
    Формат : AVI
    Формат/Информация : Audio Video Interleave
    Размер файла : 801 Мбайт
    Продолжительность : 1 ч. 2 м.
    Общий поток : 1791 Кбит/сек
    Программа кодирования : VirtualDubMod 1.5.10.3 | www.virtualdub-fr.org || (build 2550/release)
    Библиотека кодирования : VirtualDubMod build 2550/release
    Видео
    Идентификатор : 0
    Формат : MPEG-4 Visual
    Профиль формата : Advanced Simple@L5
    Параметр BVOP формата : 1
    Параметр QPel формата : Нет
    Параметр GMC формата : Без точки перехода
    Параметр матрицы формата : Default (MPEG)
    Идентификатор кодека : XVID
    Идентификатор кодека/Подсказка : XviD
    Продолжительность : 1 ч. 2 м.
    Битрейт : 1589 Кбит/сек
    Ширина : 720 пикселей
    Высота : 400 пикселей
    Соотношение сторон : 16:9
    Частота кадров : 25,000 кадров/сек
    Цветовое пространство : YUV
    Субдискретизация насыщенности : 4:2:0
    Битовая глубина : 8 бит
    Тип развёртки : Прогрессивная
    Метод сжатия : С потерями
    Бит/(Пиксели*Кадры) : 0.221
    Размер потока : 711 Мбайт (89%)
    Библиотека кодирования : XviD 1.2.1 (UTC 2008-12-04)
    Аудио
    Идентификатор : 1
    Формат : MPEG Audio
    Версия формата : Version 1
    Профиль формата : Layer 3
    Режим : Joint stereo
    Идентификатор кодека : 55
    Идентификатор кодека/Подсказка : MP3
    Продолжительность : 1 ч. 2 м.
    Вид битрейта : Постоянный
    Битрейт : 192 Кбит/сек
    Каналы : 2 канала
    Частота : 48,0 КГц
    Метод сжатия : С потерями
    Размер потока : 85,9 Мбайт (11%)
    Выравнивание : Соединение по промежуткам
    Продолжительность промежутка : 40 мс. (1,00 видеокадр)
    Время предзагрузки промежутка : 504 мс.
    Библиотека кодирования : LAME3.99r
    Настройки программы : -m j -V 4 -q 2 -lowpass 18.6 -b 192

    Скриншоты




    Скачать .torrent

    Скачать торрент-файл бесплатно и на максимальной скорости!

    Как скачивать? · Что такое торрент? · Рейтинг и ограничения

    !ВНИМАНИЕ!
    Сайт не распространяет и не хранит электронные версии произведений, а занимается лишь лишь предоставлением доступа к создаваемому пользователями каталогу ссылок на торрент-файлы, которые содержат только списки хеш-сумм, убедительная просьба с жалобами обращаться напрямую к пользователю. Файлы для обмена на трекере предоставлены пользователями сайта, и администрация не несёт ответственности за их содержание. Просьба не заливать файлы, защищенные авторскими правами, а также файлы нелегального содержания!


    _________________
    [Профиль] [ЛС]
    Показать сообщения:    
    Ответить на тему

    Текущее время: Сегодня, в 12:20

    Часовой пояс: GMT + 2



    Вы не можете начинать темы
    Вы не можете отвечать на сообщения
    Вы не можете редактировать свои сообщения
    Вы не можете удалять свои сообщения
    Вы не можете голосовать в опросах
    Вы не можете прикреплять файлы к сообщениям
    Вы не можете скачивать файлы