BitTorrentTracker PerecTracker.org
BitTorrentTracker PerecTracker.org
    
Регистрация  ·  Вход
 
 · 
Забыли пароль?

  • Дневник свекрови / Серии: 1-8 из 8 (Леонид Мазор) [2013, Россия, Мелодрама, экранизация, HDTVRip]

    Ответить на тему
     
    Автор Сообщение

    rechyn

    Создавать темы 13-Мар-2016 22:27

           

    [Цитировать]

    Дневник свекровиГод выпуска: 2013
    Производитель : Россия, Кинокомпания "Русское"
    Жанр: Мелодрама, экранизация
    Продолжительность: 50 мин.
    Cубтитры: нет
    Режиссер: Леонид Мазор
    В ролях: Евгения Дмитриева, Ольга Павловец, Анна Невская, Денис Васильев, Дарья Иванова, Александр Арсентьев, Дмитрий Пчела, Леван Мсхиладзе, Ирина Бякова, Наталья Ноздрина, Любовь Германова, Петар Зекавица, Елена Аминова, Валерий Афанасьев, Дарья Логинова, Алла Малкова, Екатерина Шмакова, Платон Бабыкин, Марина Волкова
    Описание: Лена и Павел — интеллигентные и утонченные супруги с аристократической фамилией Белоцерковские. В их семье царили теплые отношения, пока однажды единственный сын Даня не преподнес родителям сюрприз — свою пассию Нюсю. В невесте, как назло, воплотилось всё неприемлемое для Белоцерковских: вульгарность, ветреность и хамство. Ради счастья сына Лена с Павлом решили закрыть глаза на выкрутасы невестки, но эта доброта очень скоро обернулась для них настоящим кошмаром…
    Все раздачи сериала
    Сэмпл
    Качество: HDTVRip
    Формат: AVI
    Видео кодек: XviD
    Аудио кодек: AC3
    Видео: 720x400 (1.80:1), 25 fps, XviD build 73 ~1467 kbps avg, 0.22 bit/pixel
    Аудио: 48 kHz, AC3 Dolby Digital, 2/0 (L,R) ch, ~192.00 kbps avg

    MI

    General
    Complete name : X:\раздачи\Dnevnik.svekrovi.2015.HDTVRip.RG.Russkie.serialy.&.Files-x.Dnevnik.svekrovi.2015.HDTVRip.RG.Russkie.serialy.&.Files-x.avi
    Format : AVI
    Format/Info : Audio Video Interleave
    File size : 550 MiB
    Duration : 46mn 6s
    Overall bit rate : 1 669 Kbps
    Writing application : VirtualDubMod 1.5.10.3 | www.virtualdub-fr.org || (build 2550/release)
    Writing library : VirtualDubMod build 2550/release
    Video
    ID : 0
    Format : MPEG-4 Visual
    Format profile : Advanced Simple@L5
    Format settings, BVOP : 1
    Format settings, QPel : No
    Format settings, GMC : No warppoints
    Format settings, Matrix : Custom
    Codec ID : XVID
    Codec ID/Hint : XviD
    Duration : 46mn 6s
    Bit rate : 1 467 Kbps
    Width : 720 pixels
    Height : 400 pixels
    Display aspect ratio : 16:9
    Frame rate : 25.000 fps
    Color space : YUV
    Chroma subsampling : 4:2:0
    Bit depth : 8 bits
    Scan type : Progressive
    Compression mode : Lossy
    Bits/(Pixel*Frame) : 0.204
    Stream size : 484 MiB (88%)
    Writing library : XviD 73
    Audio
    ID : 1
    Format : AC-3
    Format/Info : Audio Coding 3
    Mode extension : CM (complete main)
    Format settings, Endianness : Big
    Codec ID : 2000
    Duration : 46mn 6s
    Bit rate mode : Constant
    Bit rate : 192 Kbps
    Channel(s) : 2 channels
    Channel positions : Front: L R
    Sampling rate : 48.0 KHz
    Compression mode : Lossy
    Stream size : 63.3 MiB (12%)
    Alignment : Split accross interleaves
    Interleave, duration : 40 ms (1.00 video frame)
    Interleave, preload duration : 500 ms

    Скриншоты

    Скачать .torrent

    Скачать торрент-файл бесплатно и на максимальной скорости!

    Как скачивать? · Что такое торрент? · Рейтинг и ограничения

    !ВНИМАНИЕ!
    Сайт не распространяет и не хранит электронные версии произведений, а занимается лишь лишь предоставлением доступа к создаваемому пользователями каталогу ссылок на торрент-файлы, которые содержат только списки хеш-сумм, убедительная просьба с жалобами обращаться напрямую к пользователю. Файлы для обмена на трекере предоставлены пользователями сайта, и администрация не несёт ответственности за их содержание. Просьба не заливать файлы, защищенные авторскими правами, а также файлы нелегального содержания!


    _________________
    [Профиль] [ЛС]
    Показать сообщения:    
    Ответить на тему

    Текущее время: Сегодня, в 08:02

    Часовой пояс: GMT + 2



    Вы не можете начинать темы
    Вы не можете отвечать на сообщения
    Вы не можете редактировать свои сообщения
    Вы не можете удалять свои сообщения
    Вы не можете голосовать в опросах
    Вы не можете прикреплять файлы к сообщениям
    Вы не можете скачивать файлы