BitTorrentTracker PerecTracker.org
BitTorrentTracker PerecTracker.org
    
Регистрация  ·  Вход
 
 · 
Забыли пароль?

  • Ловушка «Никто не умирает дважды... Победив, наточи нож» / Сезон: 1 / Серии: 1-24 из 24 (Сергей Коротаев) [2013, Детектив, ремейк, драма, криминал, WEBRip]

    Ответить на тему
     
    Автор Сообщение

    rechyn

    Создавать темы 13-Мар-2016 21:28

           

    [Цитировать]

    Ловушка«Никто не умирает дважды... Победив, наточи нож»
    Год выпуска: 2013
    Производство: "«Film.ua Production», Централпартнершип
    Жанр: Детектив, ремейк, драма, криминал
    Продолжительность: 00:46:00
    Субтитры: Нет
    Режиссёр: Сергей Коротаев
    В ролях: Иван Оганесян, Сергей Газаров, Сергей Стрельников, Анатолий Хостикоев, Сергей Сосновский, Рамиль Сабитов, Игорь Ботвин, Александр Форманчук, Максим Дрозд, Евгений Ефремов, Станислав Боклан, Марина Коняшкина, Наталья Доля, Инна Капинос, Екатерина Кистень, Михаил Жонин, Сергей Сипливый, Виталий Салий, Валерия Ходос, Ольга Морозова, Дария Боцманова, Яна Глущенко, Марк Дробот, Алла Мартынюк, Вадим Лёгкий, Михаил Романов (II), Алексей Смолка, Ирина Бибик
    Описание: Римейк знаменитого армянского сериала "Ворогайт". Главе самого мощного городского клана удалось прекратить криминальные войны. Сам же он решил отойти на покой и передать дела своим молодым и дерзким помощникам. Они очень быстро удвоили доходы клана, но агрессивными действиями вызвали волну недовольства остального криминального мира. Мечта «крестного отца» уйти на покой никак не может осуществиться — ему постоянно приходится вмешиваться, чтобы сохранить мир. Но мир выгоден не всем: после 12 лет в тюрьме в город возвращается крупный криминальный авторитет, готовый любой ценой вернуть утраченные позиции.
    -
    Доп. информация: Реклама отсутствует!
    -
    Все раздачи сериала: http://perectracker.org/tracker.php?f=9&nm=Ловушка%Сергей%Коротаев
    Сэмпл: Скачать
    Качество: WEBRip
    Формат: AVI
    Видео кодек: XviD
    Аудио кодек: MP3
    Видео: 720x400, 25 fps, XviD, ~1650 kbps, 0.229 bit/pixel
    Аудио: 48 kHz, MPEG Layer 3, 2 ch, 192 kbps

    MI

    Формат : AVI
    Формат/Информация : Audio Video Interleave
    Размер файла : 626 Мбайт
    Продолжительность : 46 м.
    Общий поток : 1874 Кбит/сек
    Программа кодирования : VirtualDubMod 1.5.10.3 | www.virtualdub-fr.org || (build 2550/release)
    Библиотека кодирования : VirtualDubMod build 2550/release
    Видео
    Идентификатор : 0
    Формат : MPEG-4 Visual
    Профиль формата : Advanced Simple@L5
    Параметр BVOP формата : 1
    Параметр QPel формата : Нет
    Параметр GMC формата : Без точки перехода
    Параметр матрицы формата : Default (MPEG)
    Идентификатор кодека : XVID
    Идентификатор кодека/Подсказка : XviD
    Продолжительность : 46 м.
    Битрейт : 1673 Кбит/сек
    Ширина : 720 пикселей
    Высота : 400 пикселей
    Соотношение сторон : 16:9
    Частота кадров : 25,000 кадров/сек
    Цветовое пространство : YUV
    Субдискретизация насыщенности : 4:2:0
    Битовая глубина : 8 бит
    Тип развёртки : Прогрессивная
    Метод сжатия : С потерями
    Бит/(Пиксели*Кадры) : 0.232
    Размер потока : 559 Мбайт (89%)
    Библиотека кодирования : XviD 1.2.1 (UTC 2008-12-04)
    Аудио
    Идентификатор : 1
    Формат : MPEG Audio
    Версия формата : Version 1
    Профиль формата : Layer 3
    Режим : Joint stereo
    Идентификатор кодека : 55
    Идентификатор кодека/Подсказка : MP3
    Продолжительность : 46 м.
    Вид битрейта : Постоянный
    Битрейт : 192 Кбит/сек
    Каналы : 2 канала
    Частота : 48,0 КГц
    Метод сжатия : С потерями
    Размер потока : 64,2 Мбайт (10%)
    Выравнивание : Соединение по промежуткам
    Продолжительность промежутка : 40 мс. (1,00 видеокадр)
    Время предзагрузки промежутка : 504 мс.
    Библиотека кодирования : LAME3.99r
    Настройки программы : -m j -V 4 -q 2 -lowpass 18.6 -b 192

    Скриншоты

    Скачать .torrent

    Скачать торрент-файл бесплатно и на максимальной скорости!

    Как скачивать? · Что такое торрент? · Рейтинг и ограничения

    !ВНИМАНИЕ!
    Сайт не распространяет и не хранит электронные версии произведений, а занимается лишь лишь предоставлением доступа к создаваемому пользователями каталогу ссылок на торрент-файлы, которые содержат только списки хеш-сумм, убедительная просьба с жалобами обращаться напрямую к пользователю. Файлы для обмена на трекере предоставлены пользователями сайта, и администрация не несёт ответственности за их содержание. Просьба не заливать файлы, защищенные авторскими правами, а также файлы нелегального содержания!


    _________________
    [Профиль] [ЛС]
    Показать сообщения:    
    Ответить на тему

    Текущее время: Сегодня, в 22:35

    Часовой пояс: GMT + 2



    Вы не можете начинать темы
    Вы не можете отвечать на сообщения
    Вы не можете редактировать свои сообщения
    Вы не можете удалять свои сообщения
    Вы не можете голосовать в опросах
    Вы не можете прикреплять файлы к сообщениям
    Вы не можете скачивать файлы