BitTorrentTracker PerecTracker.org
BitTorrentTracker PerecTracker.org
    
Регистрация  ·  Вход
 
 · 
Забыли пароль?

  • Деревня, в которой все молчали / Das Dorf des Schweigens (Ханс Штайнбихер / Hans Steinbichler) [2015, Германия, драма, криминал, HDTVRip 720p] DVO (Студия "Levelin") + Sub Rus + Original Ger

    Ответить на тему
     
    Автор Сообщение

    Flirldrerve

    Создавать темы 13-Мар-2016 14:06

           

    [Цитировать]

    Деревня, в которой все молчали / Das Dorf des Schweigens
    Страна: Германия
    Жанр: драма, криминал
    Год выпуска: 2015
    Продолжительность: 01:29:29
    Перевод: Любительский (двухголосый закадровый) Студия "Levelin" по переводу Константина Ломова (kon2011)
    Cубтитры: русские (отключаемые)
    Оригинальная аудиодорожка: немецкая
    Режиссер: Ханс Штайнбихер / Hans Steinbichler
    В ролях: Петра Шмидт-Шаллер, Инна Вайсе, Симон Шварц, Хельмут Лонер, Харри Принц, Хильдегард Шмаль, Карл Фишер
    Описание: Она вернулась домой через 30 лет. Вернулась неожиданно, её никто не ждал. И остальным членам семьи это возвращение не принесло радости, а только тревогу. Потому что она вернулась, чтобы напомнить им о том, о чём они давно забыли - о том, какую боль они ей причинили, о том, как они сломали её жизнь. Только это была не месть - Лидия вернулась, чтобы спасти самого любимого для неё человека...

    Доп. информация: Моя благодарность kon2011 - переводчику этого замечательного фильма и инициатора этого релиза!
    Сэмпл: http://multi-up.com/1092707
    Тип релиза: HDTVRip 720p
    Контейнер: MKV
    Видео: h264 AVC, 1280х720 (16:9), 2039 кбит/с, 25 fps, 0.089 b/px
    Аудио:
    1. AC3, 192 кбит/с, 2 ch, 48 КГц - русский
    2. AC3, 192 кбит/с, 2 ch, 48 КГц - немецкий
    Субтитры: softsub (SRT)
    Дополнительная информация о субтитрах: Константин Ломов (kon2011)

    MediaInfo

    Общее
    Уникальный идентификатор : 218291970976407683469069309544259829361 (0xA439811D3B18A57598A5B248633ABE71)
    Полное имя : D:\Das.Dorf.des.Schweigens_2015.HDTVRip-AVC_720p.mkv
    Формат : Matroska
    Версия формата : Version 4 / Version 2
    Размер файла : 1,52 Гбайт
    Продолжительность : 1 ч. 29 м.
    Общий поток : 2425 Кбит/сек
    Дата кодирования : UTC 2016-03-10 08:52:11
    Программа кодирования : mkvmerge v7.5.0 ('Glass Culture') 64bit built on Jan 4 2015 16:48:44
    Библиотека кодирования : libebml v1.3.1 + libmatroska v1.4.2
    Видео
    Идентификатор : 1
    Формат : AVC
    Формат/Информация : Advanced Video Codec
    Профиль формата : High@L4.1
    Параметр CABAC формата : Да
    Параметр ReFrames формата : 5 кадров
    Идентификатор кодека : V_MPEG4/ISO/AVC
    Продолжительность : 1 ч. 29 м.
    Битрейт : 2039 Кбит/сек
    Ширина : 1280 пикселей
    Высота : 720 пикселей
    Соотношение сторон : 16:9
    Режим частоты кадров : Постоянный
    Частота кадров : 25,000 кадров/сек
    Цветовое пространство : YUV
    Субдискретизация насыщенности : 4:2:0
    Битовая глубина : 8 бит
    Тип развёртки : Прогрессивная
    Бит/(Пиксели*Кадры) : 0.089
    Размер потока : 1,27 Гбайт (84%)
    Библиотека кодирования : x264 core 148 r2665 a01e339
    Настройки программы : cabac=1 / ref=5 / deblock=1:-3:-3 / analyse=0x3:0x113 / me=hex / subme=7 / psy=1 / psy_rd=1.00:0.00 / mixed_ref=1 / me_range=16 / chroma_me=1 / trellis=1 / 8x8dct=1 / cqm=0 / deadzone=21,11 / fast_pskip=0 / chroma_qp_offset=-2 / threads=12 / lookahead_threads=2 / sliced_threads=0 / nr=0 / decimate=1 / interlaced=0 / bluray_compat=0 / constrained_intra=0 / bframes=3 / b_pyramid=2 / b_adapt=1 / b_bias=0 / direct=1 / weightb=1 / open_gop=0 / weightp=2 / keyint=250 / keyint_min=25 / scenecut=40 / intra_refresh=0 / rc_lookahead=40 / rc=crf / mbtree=1 / crf=20.0 / qcomp=0.60 / qpmin=0 / qpmax=69 / qpstep=4 / ip_ratio=1.40 / aq=1:1.00
    Default : Да
    Forced : Нет
    Аудио #1
    Идентификатор : 2
    Формат : AC-3
    Формат/Информация : Audio Coding 3
    Расширение режима : CM (complete main)
    Параметр Endianness формата : Big
    Идентификатор кодека : A_AC3
    Продолжительность : 1 ч. 29 м.
    Вид битрейта : Постоянный
    Битрейт : 192 Кбит/сек
    Каналы : 2 канала
    Расположение каналов : Front: L R
    Частота : 48,0 КГц
    Частота кадров : 31,250 кадров/сек (1536 spf)
    Метод сжатия : С потерями
    Размер потока : 123 Мбайт (8%)
    Язык : Russian
    Default : Да
    Forced : Нет
    Аудио #2
    Идентификатор : 3
    Формат : AC-3
    Формат/Информация : Audio Coding 3
    Расширение режима : CM (complete main)
    Параметр Endianness формата : Big
    Идентификатор кодека : A_AC3
    Продолжительность : 1 ч. 29 м.
    Вид битрейта : Постоянный
    Битрейт : 192 Кбит/сек
    Каналы : 2 канала
    Расположение каналов : Front: L R
    Частота : 48,0 КГц
    Частота кадров : 31,250 кадров/сек (1536 spf)
    Метод сжатия : С потерями
    Размер потока : 123 Мбайт (8%)
    Язык : German
    Default : Нет
    Forced : Нет
    Текст
    Идентификатор : 4
    Формат : UTF-8
    Идентификатор кодека : S_TEXT/UTF8
    Идентификатор кодека/Информация : UTF-8 Plain Text
    Продолжительность : 1 ч. 27 м.
    Битрейт : 49 бит/сек
    Count of elements : 674
    Размер потока : 31,8 Кбайт (0%)
    Язык : Russian
    Default : Нет
    Forced : Нет

    Скриншоты

    Скачать .torrent

    Скачать торрент-файл бесплатно и на максимальной скорости!

    Как скачивать? · Что такое торрент? · Рейтинг и ограничения

    !ВНИМАНИЕ!
    Сайт не распространяет и не хранит электронные версии произведений, а занимается лишь лишь предоставлением доступа к создаваемому пользователями каталогу ссылок на торрент-файлы, которые содержат только списки хеш-сумм, убедительная просьба с жалобами обращаться напрямую к пользователю. Файлы для обмена на трекере предоставлены пользователями сайта, и администрация не несёт ответственности за их содержание. Просьба не заливать файлы, защищенные авторскими правами, а также файлы нелегального содержания!


    _________________
    [Профиль] [ЛС]
    Показать сообщения:    
    Ответить на тему

    Текущее время: Сегодня, в 12:19

    Часовой пояс: GMT + 2



    Вы не можете начинать темы
    Вы не можете отвечать на сообщения
    Вы не можете редактировать свои сообщения
    Вы не можете удалять свои сообщения
    Вы не можете голосовать в опросах
    Вы не можете прикреплять файлы к сообщениям
    Вы не можете скачивать файлы