BitTorrentTracker PerecTracker.org
BitTorrentTracker PerecTracker.org
    
Регистрация  ·  Вход
 
 · 
Забыли пароль?

  • Жертвуя пешкой / Pawn Sacrifice (Эдвард Цвик / Edward Zwick) [2014, США, драма, биография, BDRip 1080p] Dub (iTunes) + Sub Rus, Eng + Original Eng

    Ответить на тему
     
    Автор Сообщение

    Flirldrerve

    Создавать темы 13-Мар-2016 14:06

           

    [Цитировать]

    -Жертвуя пешкой / Pawn Sacrifice-Страна: США
    Жанр: драма, биография
    Год выпуска: 2014
    Продолжительность: 01:55:43
    Перевод: Профессиональный (дублированный) iTunes
    Cубтитры: русские, английские
    Оригинальная аудиодорожка: английский-Режиссер: Эдвард Цвик / Edward Zwick
    В ролях: Тоби Магуайр, Лив Шрайбер, Майкл Стулбарг, Питер Сарсгаард, Эдвард Зиновьев, Александр Горчков, Лили Рэйб, Робин Вайгерт, Шеймас Дэви-Фицпатрик, Эйден Лавкамп, Софи Нелисс, Эвелин Брошу, Конрад Пла, Виталий Макаров, Бретт Уотсон, Игорь Овадис, Бобо Виан, Шон Кэмпбелл, Кэти Нолан, Джо Кобден-Описание: В разгар Холодной войны внимание всей планеты приковано к «схватке столетия» — матчу за звание чемпиона мира по шахматам в Рейкьявике. Бой между абсолютным чемпионом Борисом Спасским и по-настоящему одержимым игрой Бобби Фишером превращается в борьбу за интеллектуальное превосходство двух сверхдержав. Права на проигрыш нет. Вокруг поединка разражается мировой скандал. Спасскому приходится справляться с беспрецедентным давлением. Гениальный разум Фишера, взвинченный паранойей, начинает охватывать безумие.-Сэмпл: https://yadi.sk/i/r31929sPq4r3f-Тип релиза: BDRip 1080p
    Контейнер: MKV
    Видео: MPEG-4 AVC Video 23.0 Mbps 1920x804p / 23,976 fps / 16:9 / High Profile 4.1
    Аудио: Russian Dolby Digital Audio 384 kbps 5.1 / 48 kHz
    Аудио 2: English DTS Audio 5.1 / 48 kHz / 1509 kbps
    Формат субтитров: softsub (SRT)

    Видеоряд от SA89

    ~ Pawn Sacrifice (2014) ~
    InfoGeneral: 19.5 GiB | 1:55:43Video: 1920x804 | 23.0 Mbps | Constant | 23.976 fpsAudio: English | DD5.1 | 640 KbpsCommentary: -Subtitles: English, English Forced | SRTChapters: YesNotes:FRE source is used for the video.USA source is used for the video, overlay, intro and outro, audio, subtitles and chapters.
    The FRE source has better quality and better grain retention.
    The FRE source doesn't have hardcoded subtitles. Examples:
    The USA source is used for hardcoded names. Examples:
    The USA source had one scene cropped. Example:

    Source vs SA89 vs TayTO

    MI

    GeneralUnique ID : 172761001764809608841918233001353264478 (0x81F88F03D341E84CA9C2E048C737BD5E)Complete name : S:\На хранении\Жертвуя пешкой (2014. Pawn Sacrifice).mkvFormat : MatroskaFormat version : Version 2File size : 20.5 GiBDuration : 1h 55mnOverall bit rate : 25.4 MbpsMovie name : Release for RuTrackerEncoded date : UTC 2016-03-10 23:00:12Writing application : mkvmerge v4.9.1 ('Ich will') сборка от Jul 11 2011 23:53:15Writing library : libebml v1.2.1 + libmatroska v1.1.1Cover : YesAttachments : cover.jpg
    VideoID : 1Format : AVCFormat/Info : Advanced Video CodecFormat profile : High@L4.1Format settings, CABAC : YesFormat settings, ReFrames : 4 framesCodec ID : V_MPEG4/ISO/AVCDuration : 1h 55mnBit rate : 23.0 MbpsWidth : 1 920 pixelsHeight : 804 pixelsDisplay aspect ratio : 2.40:1Frame rate mode : ConstantFrame rate : 23.976 (24000/1001) fpsColor space : YUVChroma subsampling : 4:2:0Bit depth : 8 bitsScan type : ProgressiveBits/(Pixel*Frame) : 0.622Stream size : 18.6 GiB (91%)Title : Pawn.Sacrifice.2014.Hybrid.1080p.BluRay.DD5.1.x264-SA89Writing library : x264 core 148 r2638 7599210Encoding settings : cabac=1 / ref=4 / deblock=1:-3:-3 / analyse=0x3:0x113 / me=umh / subme=10 / psy=1 / psy_rd=1.00:0.00 / mixed_ref=1 / me_range=24 / chroma_me=1 / trellis=2 / 8x8dct=1 / cqm=0 / deadzone=21,11 / fast_pskip=1 / chroma_qp_offset=-2 / threads=6 / lookahead_threads=1 / sliced_threads=0 / nr=0 / decimate=1 / interlaced=0 / bluray_compat=0 / constrained_intra=0 / bframes=8 / b_pyramid=2 / b_adapt=2 / b_bias=0 / direct=1 / weightb=1 / open_gop=0 / weightp=2 / keyint=250 / keyint_min=25 / scenecut=40 / intra_refresh=0 / rc_lookahead=60 / rc=crf / mbtree=0 / crf=16.5 / qcomp=0.60 / qpmin=0 / qpmax=69 / qpstep=4 / vbv_maxrate=62500 / vbv_bufsize=78125 / crf_max=0.0 / nal_hrd=none / filler=0 / ip_ratio=1.40 / pb_ratio=1.30 / aq=1:0.80Language : EnglishDefault : YesForced : No
    Audio #1ID : 2Format : AC-3Format/Info : Audio Coding 3Mode extension : CM (complete main)Format settings, Endianness : BigCodec ID : A_AC3Duration : 1h 55mnBit rate mode : ConstantBit rate : 384 KbpsChannel(s) : 6 channelsChannel positions : Front: L C R, Side: L R, LFESampling rate : 48.0 KHzFrame rate : 31.250 fps (1536 spf)Compression mode : LossyStream size : 318 MiB (2%)Title : ДубляжLanguage : RussianDefault : YesForced : No
    Audio #2ID : 3Format : DTSFormat/Info : Digital Theater SystemsMode : 16Format settings, Endianness : BigCodec ID : A_DTSDuration : 1h 55mnBit rate mode : ConstantBit rate : 1 509 KbpsChannel(s) : 6 channelsChannel positions : Front: L C R, Side: L R, LFESampling rate : 48.0 KHzFrame rate : 93.750 fps (512 spf)Bit depth : 24 bitsCompression mode : LossyStream size : 1.22 GiB (6%)Language : EnglishDefault : NoForced : No
    Text #1ID : 4Format : UTF-8Codec ID : S_TEXT/UTF8Codec ID/Info : UTF-8 Plain TextTitle : НотабеноидLanguage : RussianDefault : NoForced : No
    Text #2ID : 5Format : UTF-8Codec ID : S_TEXT/UTF8Codec ID/Info : UTF-8 Plain TextLanguage : EnglishDefault : NoForced : No
    Text #3ID : 6Format : UTF-8Codec ID : S_TEXT/UTF8Codec ID/Info : UTF-8 Plain TextTitle : ForcedLanguage : EnglishDefault : NoForced : No
    Menu00:00:00.000 : en:Chapter 0100:06:40.025 : en:Chapter 0200:10:34.843 : en:Chapter 0300:15:15.540 : en:Chapter 0400:20:03.536 : en:Chapter 0500:26:01.852 : en:Chapter 0600:31:15.123 : en:Chapter 0700:38:54.040 : en:Chapter 0800:45:24.180 : en:Chapter 0900:51:00.140 : en:Chapter 1000:55:47.803 : en:Chapter 1100:59:35.614 : en:Chapter 1201:07:02.435 : en:Chapter 1301:10:49.537 : en:Chapter 1401:18:07.808 : en:Chapter 1501:22:53.677 : en:Chapter 1601:29:49.884 : en:Chapter 1701:35:09.495 : en:Chapter 1801:39:16.951 : en:Chapter 1901:48:15.114 : en:Chapter 20
    Скриншоты

    Зеркало


    Цитата:
    Цитата:

    • Гибридный рип. С американского трансфера взят звук, а также титры (на французском трансфере все титры на французском). Сам основной фильм сделан с французского трансфера, т.к. в нем отсутствует хардсаб, а также он имеет лучшее качество видео. Подробнее смотрите под спойлером с описанием рипа.
    • По правилам не влезает в 70% от веса сорса (76% от француза и 71% от американца). Но тут, в качестве исключения, ИМХО стоит оставить, т.к. рип сочетает в себе плюсы двух разных трансферов.
    • Сохранены оригинальные чаптеры как на Blu-ray.
    Скачать .torrent

    Скачать торрент-файл бесплатно и на максимальной скорости!

    Как скачивать? · Что такое торрент? · Рейтинг и ограничения

    !ВНИМАНИЕ!
    Сайт не распространяет и не хранит электронные версии произведений, а занимается лишь лишь предоставлением доступа к создаваемому пользователями каталогу ссылок на торрент-файлы, которые содержат только списки хеш-сумм, убедительная просьба с жалобами обращаться напрямую к пользователю. Файлы для обмена на трекере предоставлены пользователями сайта, и администрация не несёт ответственности за их содержание. Просьба не заливать файлы, защищенные авторскими правами, а также файлы нелегального содержания!


    _________________
    [Профиль] [ЛС]
    Показать сообщения:    
    Ответить на тему

    Текущее время: Сегодня, в 04:32

    Часовой пояс: GMT + 2



    Вы не можете начинать темы
    Вы не можете отвечать на сообщения
    Вы не можете редактировать свои сообщения
    Вы не можете удалять свои сообщения
    Вы не можете голосовать в опросах
    Вы не можете прикреплять файлы к сообщениям
    Вы не можете скачивать файлы