BitTorrentTracker PerecTracker.org
BitTorrentTracker PerecTracker.org
    
Регистрация  ·  Вход
 
 · 
Забыли пароль?

  • Шпионский мост / Bridge of Spies (Стивен Спилберг / Steven Spielberg) [2015, США, Индия, Германия, Триллер, драма, биография, история, BDRip 1080p] Dub + Sub Rus, Ukr, Eng + Original Eng

    Ответить на тему
     
    Автор Сообщение

    Flirldrerve

    Создавать темы 13-Мар-2016 14:06

           

    [Цитировать]

    Шпионский мост / Bridge of Spies
    Страна: США, Индия, Германия
    Студия: Amblin Entertainment, DreamWorks SKG, Fox 2000 Pictures
    Жанр: Триллер, драма, биография, история
    Год выпуска: 2015
    Продолжительность: 02:21:19
    Перевод: Профессиональный (дублированный)
    Cубтитры: Rus, Ukr, Eng
    Оригинальная аудиодорожка: английский
    Режиссер: Стивен Спилберг / Steven Spielberg
    В ролях: Том Хэнкс, Марк Райлэнс, Эми Райан, Алан Алда, Остин Стоуэлл, Скотт Шеперд, Джесси Племонс, Доменик Ломбардоззи, Себастьян Кох, Ив Хьюсон, Дэкин Мэтьюз, Майкл Гэстон, Питер МакРобби, Стефан Канкен, Джошуа Харто, Билли Магнуссен, Марк Цак, Эдвард Джеймс Хайланд, Марко Кака, Михаил Горевой, Джон Окума
    Описание: 1957 год, Бруклин. Известный адвокат Джеймс Донован получает необычное дело: его клиент Рудольф Абель подозревается в шпионаже в пользу Советского Союза. В отличие от своих коллег, Донован занимается защитой «обреченного» подсудимого не формально, а по всем принципам справедливости – как если бы Рудольф был верноподанным американцем. Подобный подход вызывает раздражение у всех, включая судей и присяжных, но Доновану удается смягчить приговор: со смертной казни до 30-летнего заключения. Вскоре выясняется, что в СССР был взят в плен американский шпион Фрэнсис Пауэрс. Советские власти предлагают обмен Абеля на Пауэрса, и Донован оказывается в центре этой опасной сделки.

    Тип релиза: BDRip 1080p
    Контейнер: MKV
    Видео: MPEG-4 AVC, 15.2 Mбит/с, 1920x800, 23,976 fps
    Аудио: Rus, DTS, 768 kb/s (6 ch), 48 kHz
    Аудио 2: Eng, DTS, 1510 kb/s (6 ch), 48 kHz
    Формат субтитров: softsub (SRT)

    MediaInfo

    Format : Matroska
    Format version : Version 4 / Version 2
    File size : 17.6 GiB
    Duration : 2h 21mn
    Overall bit rate : 17.8 Mbps
    Movie name : Шпионский мост. (Tonik)
    Encoded date : UTC 2016-03-11 01:50:46
    Writing application : mkvmerge v7.1.0 ('Good Love') 64bit built on Jul 27 2014 13:06:55
    Writing library : libebml v1.3.0 + libmatroska v1.4.1
    _STATISTICS_WRITING_APP : mkvmerge v7.1.0 ('Good Love') 64bit built on Jul 27 2014 13:06:55
    _STATISTICS_WRITING_DATE_UTC : 2016-03-11 01:50:46
    _STATISTICS_TAGS : BPS DURATION NUMBER_OF_FRAMES NUMBER_OF_BYTES
    DURATION : 02:21:19.680000000
    NUMBER_OF_FRAMES : 203309
    NUMBER_OF_BYTES : 16430709672
    Video
    ID : 1
    Format : AVC
    Format/Info : Advanced Video Codec
    Format profile : High@L4.1
    Format settings, CABAC : Yes
    Format settings, ReFrames : 4 frames
    Codec ID : V_MPEG4/ISO/AVC
    Duration : 2h 21mn
    Bit rate : 15.2 Mbps
    Width : 1 920 pixels
    Height : 800 pixels
    Display aspect ratio : 2.40:1
    Frame rate mode : Constant
    Frame rate : 23.976 fps
    Color space : YUV
    Chroma subsampling : 4:2:0
    Bit depth : 8 bits
    Scan type : Progressive
    Bits/(Pixel*Frame) : 0.411
    Stream size : 15.0 GiB (85%)
    Writing library : x264 core 148 r2638 7599210
    Encoding settings : cabac=1 / ref=4 / deblock=1:-3:-3 / analyse=0x3:0x113 / me=umh / subme=10 / psy=1 / psy_rd=1.00:0.00 / mixed_ref=1 / me_range=24 / chroma_me=1 / trellis=2 / 8x8dct=1 / cqm=0 / deadzone=21,11 / fast_pskip=1 / chroma_qp_offset=-2 / threads=6 / lookahead_threads=1 / sliced_threads=0 / nr=0 / decimate=1 / interlaced=0 / bluray_compat=0 / constrained_intra=0 / bframes=8 / b_pyramid=2 / b_adapt=2 / b_bias=0 / direct=1 / weightb=1 / open_gop=0 / weightp=2 / keyint=250 / keyint_min=25 / scenecut=40 / intra_refresh=0 / rc_lookahead=60 / rc=crf / mbtree=0 / crf=16.5 / qcomp=0.60 / qpmin=0 / qpmax=69 / qpstep=4 / vbv_maxrate=62500 / vbv_bufsize=78125 / crf_max=0.0 / nal_hrd=none / filler=0 / ip_ratio=1.40 / pb_ratio=1.30 / aq=1:0.80
    Language : English
    Default : Yes
    Forced : No
    Audio #1
    ID : 2
    Format : DTS
    Format/Info : Digital Theater Systems
    Mode : 16
    Format settings, Endianness : Big
    Codec ID : A_DTS
    Duration : 2h 21mn
    Bit rate mode : Constant
    Bit rate : 768 Kbps
    Channel(s) : 6 channels
    Channel positions : Front: L C R, Side: L R, LFE
    Sampling rate : 48.0 KHz
    Bit depth : 24 bits
    Compression mode : Lossy
    Stream size : 776 MiB (4%)
    Language : Russian
    Default : Yes
    Forced : No
    Audio #2
    ID : 3
    Format : DTS
    Format/Info : Digital Theater Systems
    Format profile : ES
    Mode : 16
    Format settings, Endianness : Big
    Codec ID : A_DTS
    Duration : 2h 21mn
    Bit rate mode : Constant
    Bit rate : 1 509 Kbps
    Channel(s) : 6 channels
    Channel positions : Front: L C R, Side: L R, LFE
    Sampling rate : 48.0 KHz
    Bit depth : 24 bits
    Compression mode : Lossy
    Stream size : 1.49 GiB (8%)
    Language : English
    Default : No
    Forced : No
    Text #1
    ID : 4
    Format : UTF-8
    Codec ID : S_TEXT/UTF8
    Codec ID/Info : UTF-8 Plain Text
    Title : Forced
    Language : Russian
    Default : Yes
    Forced : No
    Text #2
    ID : 5
    Format : UTF-8
    Codec ID : S_TEXT/UTF8
    Codec ID/Info : UTF-8 Plain Text
    Language : Russian
    Default : No
    Forced : No
    Text #3
    ID : 6
    Format : UTF-8
    Codec ID : S_TEXT/UTF8
    Codec ID/Info : UTF-8 Plain Text
    Language : Ukrainian
    Default : No
    Forced : No
    Text #4
    ID : 7
    Format : UTF-8
    Codec ID : S_TEXT/UTF8
    Codec ID/Info : UTF-8 Plain Text
    Language : English
    Default : No
    Forced : No
    Menu
    00:00:00.000 : en:Chapter 1
    00:10:29.462 : en:Chapter 2
    00:17:46.482 : en:Chapter 3
    00:22:09.828 : en:Chapter 4
    00:25:27.901 : en:Chapter 5
    00:31:18.210 : en:Chapter 6
    00:37:45.722 : en:Chapter 7
    00:45:29.268 : en:Chapter 8
    00:52:36.695 : en:Chapter 9
    01:00:39.427 : en:Chapter 10
    01:07:17.867 : en:Chapter 11
    01:16:52.399 : en:Chapter 12
    01:33:55.672 : en:Chapter 13
    01:45:41.752 : en:Chapter 14
    01:56:31.193 : en:Chapter 15
    02:07:20.550 : en:Chapter 16
    02:14:18.801 : en:Chapter 17

    Скриншоты

    Скачать .torrent

    Скачать торрент-файл бесплатно и на максимальной скорости!

    Как скачивать? · Что такое торрент? · Рейтинг и ограничения

    !ВНИМАНИЕ!
    Сайт не распространяет и не хранит электронные версии произведений, а занимается лишь лишь предоставлением доступа к создаваемому пользователями каталогу ссылок на торрент-файлы, которые содержат только списки хеш-сумм, убедительная просьба с жалобами обращаться напрямую к пользователю. Файлы для обмена на трекере предоставлены пользователями сайта, и администрация не несёт ответственности за их содержание. Просьба не заливать файлы, защищенные авторскими правами, а также файлы нелегального содержания!


    _________________
    [Профиль] [ЛС]
    Показать сообщения:    
    Ответить на тему

    Текущее время: Сегодня, в 10:53

    Часовой пояс: GMT + 2



    Вы не можете начинать темы
    Вы не можете отвечать на сообщения
    Вы не можете редактировать свои сообщения
    Вы не можете удалять свои сообщения
    Вы не можете голосовать в опросах
    Вы не можете прикреплять файлы к сообщениям
    Вы не можете скачивать файлы