BitTorrentTracker PerecTracker.org
BitTorrentTracker PerecTracker.org
    
Регистрация  ·  Вход
 
 · 
Забыли пароль?

  • Клуб Винкс. Тёмный Феникс / Winx Club: The Shadow Phoenix (Иджинио Страффи / Iginio Straffi ) [2011, мультфильм, семейный, DVB-AVC] Dub

    Ответить на тему
     
    Автор Сообщение

    rechyn

    Создавать темы 13-Мар-2016 14:06

           

    [Цитировать]

    Клуб Винкс. Тёмный Феникс / Winx Club: The Shadow Phoenix
    Год выпуска: 2011
    Страна: Италия
    Жанр: мультфильм, семейный
    Продолжительность: 00:45:58
    Перевод: Профессиональный (дублированный), объединение «Русский дубляж» в 2011г.
    Русские субтитры: телетекст
    Режиссёр: Иджинио Страффи / Iginio Straffi
    Описание: Начинается второй год обучения в школе Алфея, и феи знакомятся с новым учителем Авалоном.
    Блум возлагает на это знакомство большие надежды: она уверена, что профессор может помочь ей больше узнать о настоящих родителях. Авалон кажется ей мудрым и добрым, но, увы, всё оказывается не так радужно, и вновь Винкс приходится лицом к лицу столкнуться со злыми силами.
    Кроме того, феи узнают, что их маленькие подопечные Пикси попали в беду — их захватил в плен коварный и могущественный маг Тёмный Феникс.
    Релиз группы:
    Трансляция спутникового канала:

    Семпл: https://yadi.sk/i/20uGxbugq8TFT
    Качество видео: DVB
    Формат видео: MPEG-TS
    Видео: MPEG4 Video (H264), 720x576@785x576 (4:3), анаморф, 25 fps, 2700 kbps
    Аудио: MPEG Audio, 2 сh, 48 kHz, 192 kbps

    MediaInfo

    General
    ID : 1 (0x1)
    Complete name : G:\Клуб Винкс. Битва за Магикс. (2011)_DVB by SLuMeP.ts
    Format : MPEG-TS
    File size : 994 MiB
    Duration : 45mn 58s
    Overall bit rate mode : Variable
    Overall bit rate : 3 023 Kbps
    Video
    ID : 1081 (0x439)
    Menu ID : 1080 (0x438)
    Format : AVC
    Format/Info : Advanced Video Codec
    Format profile : Main@L3
    Format settings, CABAC : Yes
    Format settings, ReFrames : 4 frames
    Codec ID : 27
    Duration : 45mn 57s
    Bit rate : 2 679 Kbps
    Width : 720 pixels
    Height : 576 pixels
    Display aspect ratio : 4:3
    Frame rate : 25.000 fps
    Standard : Component
    Color space : YUV
    Chroma subsampling : 4:2:0
    Bit depth : 8 bits
    Scan type : Interlaced
    Scan type, store method : Separated fields
    Scan order : Top Field First
    Bits/(Pixel*Frame) : 0.258
    Stream size : 881 MiB (89%)
    Color range : Limited
    Color primaries : BT.601 PAL
    Transfer characteristics : BT.470 System B, BT.470 System G
    Matrix coefficients : BT.601
    Audio
    ID : 1082 (0x43A)
    Menu ID : 1080 (0x438)
    Format : MPEG Audio
    Format version : Version 1
    Format profile : Layer 2
    Codec ID : 3
    Duration : 45mn 57s
    Bit rate mode : Constant
    Bit rate : 192 Kbps
    Channel(s) : 2 channels
    Sampling rate : 48.0 KHz
    Compression mode : Lossy
    Delay relative to video : -120ms
    Stream size : 63.1 MiB (6%)
    Language : Russian
    Text
    ID : 1083 (0x43B)-100
    Menu ID : 1080 (0x438)
    Format : Teletext
    Language : Russian

    Скриншоты


    Скачать .torrent

    Скачать торрент-файл бесплатно и на максимальной скорости!

    Как скачивать? · Что такое торрент? · Рейтинг и ограничения

    !ВНИМАНИЕ!
    Сайт не распространяет и не хранит электронные версии произведений, а занимается лишь лишь предоставлением доступа к создаваемому пользователями каталогу ссылок на торрент-файлы, которые содержат только списки хеш-сумм, убедительная просьба с жалобами обращаться напрямую к пользователю. Файлы для обмена на трекере предоставлены пользователями сайта, и администрация не несёт ответственности за их содержание. Просьба не заливать файлы, защищенные авторскими правами, а также файлы нелегального содержания!


    _________________
    [Профиль] [ЛС]
    Показать сообщения:    
    Ответить на тему

    Текущее время: Сегодня, в 05:19

    Часовой пояс: GMT + 2



    Вы не можете начинать темы
    Вы не можете отвечать на сообщения
    Вы не можете редактировать свои сообщения
    Вы не можете удалять свои сообщения
    Вы не можете голосовать в опросах
    Вы не можете прикреплять файлы к сообщениям
    Вы не можете скачивать файлы