BitTorrentTracker PerecTracker.org
BitTorrentTracker PerecTracker.org
    
Регистрация  ·  Вход
 
 · 
Забыли пароль?

  • [ATV3] В центре внимания / Spotlight (Том МакКарти / Tom McCarthy ) [2015, США, Канада, Триллер, драма, биография, история, BDRip, HD (1080p)] MVO + Original + sub (eng)

    Ответить на тему
     
    Автор Сообщение

    Flirldrerve

    Создавать темы 13-Мар-2016 14:06

           

    [Цитировать]

    В центре внимания / Spotlight
    «Читай между строк»
    7.459 / 10 8.20 / 10
    -Год выпуска: 2015
    Страна: США, Канада
    Жанр: Триллер, драма, биография, история
    Продолжительность: 02:09:08
    Перевод: Многоголосый закадровый (iTunes)
    Оригинальная аудиодорожка: Есть
    Cубтитры: Английские
    Режиссёр: Том МакКарти
    Сценарий: Джош Сингер, Том МакКарти
    Продюсер: Блай Пэгон Фауст, Стив Голин, Николь Роклин
    Оператор: Масанобу Такаянаги
    Композитор: Говард Шор
    Художник: Стивен Х. Картер, Михаэла Чейн, Венди Чак
    Монтаж: Том МакАрдл
    В ролях: Марк Руффало, Майкл Китон, Рэйчел МакАдамс, Лив Шрайбер, Джон Слэттери, Стэнли Туччи, Брайан Д’Арси Джеймс, Елена Стайтелер, Джин Аморозо, Даг Мюррэй
    Бюджет: $20 000 000
    Сборы в США: $42 504 604
    Сборы в мире: + $30 328 961 = $72 833 565
    Сборы в России: $124 576
    Мировая премьера: 3 сентября 2015
    Премьера (РФ): 11 февраля 2016, «Парадиз»
    Описание: Основанная на реальных событиях история журналистского расследования одного из самых громких в истории США секс-скандалов. Корреспонденты бостонской газеты разоблачают случаи педофилии, в которых обвиняются представители Церкви…-Качество исходника: BDRemux (HDClub)
    Качество: BDRip
    Тип: HD (1080p)
    Контейнер: M4V
    Видео: H.264, 1920x1040, 1.85:1, 8 000 Kbps, 23.976 (24000/1001) fps
    Аудио 1: Русский/Многоголосый закадровый (iTunes), AAC / 2.0 / 155 Kbps / 48.0 KHz
    Аудио 2: Английский/Оригинальная дорожка , AAC / 2.0 / 154 Kbps / 48.0 KHz
    Аудио 3: Русский/Многоголосый закадровый (iTunes), AC-3 / 5.1 / 384 Kbps / 48.0 KHz
    Аудио 4: Английский/Оригинальная дорожка , AC-3 / 5.1 / 640 Kbps / 48.0 KHz
    Субтитры: Английские полные
    -

    iTunes Meta Tags

    Sort Name: Spotlight
    XID: Apple:vendor_id:2015-834394
    contentID: 1058061902
    Copyright: © 2015 Open Road Films. All Rights Reserved.
    Screenwriters: Джош Сингер, Том МакКарти
    Producers: Блай Пэгон Фауст, Стив Голин, Николь Роклин
    Director: Том МакКарти
    Cast: Марк Руффало, Майкл Китон, Рэйчел МакАдамс, Лив Шрайбер, Джон Слэттери, Стэнли Туччи, Брайан Д’Арси Джеймс, Елена Стайтелер, Джин Аморозо, Даг Мюррэй
    Studio: Open Road Films
    Rating Annotation: Rated R for some language including sexual references.
    Rating: 5
    Long Description: Основанная на реальных событиях история журналистского расследования одного из самых громких в истории США секс-скандалов. Корреспонденты бостонской газеты разоблачают случаи педофилии, в которых обвиняются представители Церкви...
    Description: Основанная на реальных событиях история журналистского расследования одного из самых громких в истории США секс-скандалов. Корреспонденты бостонской газеты разоблачают случаи педофилии, в которых обвиняются представители Церкви...
    Release Date: 2015-09-03T08:00:00Z
    Genre: Drama
    Artist: Tom McCarthy
    Name: Spotlight

    MediaInfo

    General
    Complete name : /Users/imac/HandBrake/Spotlight (1080p HD).m4v
    Format : MPEG-4
    Codec ID : M4V  (M4V /M4A /mp42/isom)
    File size : 8.42 GiB
    Duration : 2h 9mn
    Overall bit rate mode : Variable
    Overall bit rate : 9 339 Kbps
    Movie name : Spotlight
    Performer : Tom McCarthy
    Director : Том МакКарти
    Actor : Марк Руффало / Майкл Китон / Рэйчел МакАдамс / Лив Шрайбер / Джон Слэттери / Стэнли Туччи / Брайан Д’Арси Джеймс / Елена Стайтелер / Джин Аморозо / Даг Мюррэй
    Screenplay by : Джош Сингер / Том МакКарти
    Producer : Блай Пэгон Фауст / Стив Голин / Николь Роклин
    Production studio : Open Road Films
    Genre : Drama
    ContentType : Short Film
    Description : Основанная на реальных событиях история журналистского расследования одного из самых громких в истории США секс-скандалов. Корреспонденты бостонской газеты разоблачают случаи педофилии, в которых обвиняются представители Церкви...
    Recorded date : UTC 2015-09-03 08:00:00
    Encoded date : UTC 2016-03-13 10:12:23
    Tagged date : UTC 2016-03-13 10:14:48
    Copyright : © 2015 Open Road Films. All Rights Reserved.
    Cover : Yes
    Rating : None
    Title/Sort : Spotlight
    LongDescription : Основанная на реальных событиях история журналистского расследования одного из самых громких в истории США секс-скандалов. Корреспонденты бостонской газеты разоблачают случаи педофилии, в которых обвиняются представители Церкви...
    AppleStoreCatalogID : 1058061902
    Vendor : Apple:vendor_id:2015-834394
    ContentRating : mpaa|R|400|Rated R for some language including sexual references.
    Video #1
    ID : 1
    Format : AVC
    Format/Info : Advanced Video Codec
    Format profile : High@L4
    Format settings, CABAC : Yes
    Format settings, ReFrames : 4 frames
    Codec ID : avc1
    Codec ID/Info : Advanced Video Coding
    Duration : 2h 9mn
    Source duration : 2h 9mn
    Bit rate : 8 000 Kbps
    Width : 1 920 pixels
    Height : 1 040 pixels
    Display aspect ratio : 1.85:1
    Frame rate mode : Variable
    Frame rate : 23.976 (24000/1001) fps
    Minimum frame rate : 23.974 fps
    Maximum frame rate : 23.981 fps
    Color space : YUV
    Chroma subsampling : 4:2:0
    Bit depth : 8 bits
    Scan type : Progressive
    Bits/(Pixel*Frame) : 0.167
    Stream size : 7.21 GiB (86%)
    Source stream size : 7.21 GiB (86%)
    Title : Main Program
    Writing library : x264 core 142 r2479 dd79a61
    Encoding settings : cabac=1 / ref=4 / deblock=1:-2:-2 / analyse=0x3:0x133 / me=umh / subme=10 / psy=1 / psy_rd=1.00:0.15 / mixed_ref=1 / me_range=32 / chroma_me=1 / trellis=2 / 8x8dct=1 / cqm=0 / deadzone=21,11 / fast_pskip=0 / chroma_qp_offset=-3 / threads=36 / lookahead_threads=8 / sliced_threads=0 / nr=0 / decimate=0 / interlaced=0 / bluray_compat=0 / constrained_intra=0 / bframes=16 / b_pyramid=2 / b_adapt=2 / b_bias=0 / direct=3 / weightb=1 / open_gop=0 / weightp=2 / keyint=240 / keyint_min=24 / scenecut=40 / intra_refresh=0 / rc_lookahead=60 / rc=2pass / mbtree=1 / bitrate=8000 / ratetol=1.0 / qcomp=0.70 / qpmin=0 / qpmax=69 / qpstep=4 / cplxblur=20.0 / qblur=0.5 / vbv_maxrate=25000 / vbv_bufsize=25000 / nal_hrd=none / filler=0 / ip_ratio=1.40 / aq=1:1.00
    Language : English
    Encoded date : UTC 2016-03-13 10:12:24
    Tagged date : UTC 2016-03-13 10:12:34
    Color range : Limited
    Color primaries : BT.709
    Transfer characteristics : BT.709
    Matrix coefficients : BT.709
    Menus : 7,8
    Video #2
    ID : 8
    Format : JPEG
    Codec ID : jpeg
    Duration : 2h 9mn
    Bit rate mode : Variable
    Bit rate : 1 323 bps
    Width : 640 pixels
    Height : 346 pixels
    Display aspect ratio : 1.85:1
    Frame rate mode : Variable
    Frame rate : 0.003 fps
    Minimum frame rate : 0.002 fps
    Maximum frame rate : 0.005 fps
    Color space : YUV
    Chroma subsampling : 4:2:0
    Bit depth : 8 bits
    Compression mode : Lossy
    Bits/(Pixel*Frame) : 1.992
    Stream size : 1.05 MiB (0%)
    Title : Chapter Images
    Language : English
    Default : No
    Encoded date : UTC 2016-03-13 10:13:18
    Tagged date : UTC 2016-03-13 10:13:19
    Menu For : 1
    Audio #1
    ID : 2
    Format : AAC
    Format/Info : Advanced Audio Codec
    Format profile : LC
    Codec ID : 40
    Duration : 2h 9mn
    Bit rate mode : Variable
    Bit rate : 155 Kbps
    Maximum bit rate : 242 Kbps
    Channel(s) : 2 channels
    Channel positions : Front: L R
    Sampling rate : 48.0 KHz
    Frame rate : 46.875 fps (1024 spf)
    Compression mode : Lossy
    Stream size : 143 MiB (2%)
    Title : Russian Stereo
    Language : Russian
    Default : Yes
    Alternate group : 1
    Encoded date : UTC 2016-03-13 10:12:24
    Tagged date : UTC 2016-03-13 10:13:09
    Fallback From : 4
    Menus : 7
    Audio #2
    ID : 3
    Format : AAC
    Format/Info : Advanced Audio Codec
    Format profile : LC
    Codec ID : 40
    Duration : 2h 9mn
    Bit rate mode : Variable
    Bit rate : 154 Kbps
    Maximum bit rate : 261 Kbps
    Channel(s) : 2 channels
    Channel positions : Front: L R
    Sampling rate : 48.0 KHz
    Frame rate : 46.875 fps (1024 spf)
    Compression mode : Lossy
    Stream size : 143 MiB (2%)
    Title : English Stereo
    Language : English
    Default : No
    Alternate group : 1
    Encoded date : UTC 2016-03-13 10:12:24
    Tagged date : UTC 2016-03-13 10:13:09
    Fallback From : 5
    Audio #3
    ID : 4
    Format : AC-3
    Format/Info : Audio Coding 3
    Mode extension : CM (complete main)
    Format settings, Endianness : Big
    Codec ID : ac-3
    Duration : 2h 9mn
    Bit rate mode : Constant
    Bit rate : 384 Kbps
    Channel(s) : 6 channels
    Channel positions : Front: L C R, Side: L R, LFE
    Sampling rate : 48.0 KHz
    Frame rate : 31.250 fps (1536 spf)
    Bit depth : 16 bits
    Compression mode : Lossy
    Stream size : 355 MiB (4%)
    Title : Russian DD 5.1
    Language : Russian
    Default : Inherited From: 2
    Alternate group : 1
    Encoded date : UTC 2016-03-13 10:12:24
    Tagged date : UTC 2016-03-13 10:13:09
    Fallback To : 2
    Audio #4
    ID : 5
    Format : AC-3
    Format/Info : Audio Coding 3
    Mode extension : CM (complete main)
    Format settings, Endianness : Big
    Codec ID : ac-3
    Duration : 2h 9mn
    Bit rate mode : Constant
    Bit rate : 640 Kbps
    Channel(s) : 6 channels
    Channel positions : Front: L C R, Side: L R, LFE
    Sampling rate : 48.0 KHz
    Frame rate : 31.250 fps (1536 spf)
    Bit depth : 16 bits
    Compression mode : Lossy
    Stream size : 591 MiB (7%)
    Title : English DD 5.1
    Language : English
    Default : No
    Alternate group : 1
    Encoded date : UTC 2016-03-13 10:12:24
    Tagged date : UTC 2016-03-13 10:13:09
    Fallback To : 3
    Text
    ID : 6
    Format : Timed Text
    Muxing mode : sbtl
    Codec ID : tx3g
    Duration : 2h 0mn
    Bit rate mode : Variable
    Bit rate : 102 bps
    Stream size : 89.7 KiB (0%)
    Title : English full
    Language : English
    Default : Yes
    Forced : No
    Alternate group : 2
    Encoded date : UTC 2016-03-13 10:12:24
    Tagged date : UTC 2016-03-13 10:13:06
    Menu #1
    00:00:00.000 : Chapter 1
    00:08:20.792 : Chapter 2
    00:14:30.578 : Chapter 3
    00:21:51.560 : Chapter 4
    00:27:38.949 : Chapter 5
    00:35:48.813 : Chapter 6
    00:45:39.028 : Chapter 7
    00:49:12.241 : Chapter 8
    00:53:20.656 : Chapter 9
    00:59:36.615 : Chapter 10
    01:05:29.259 : Chapter 11
    01:10:47.577 : Chapter 12
    01:17:30.729 : Chapter 13
    01:23:30.088 : Chapter 14
    01:30:02.522 : Chapter 15
    01:34:27.537 : Chapter 16
    01:42:52.583 : Chapter 17
    01:50:57.985 : Chapter 18
    01:55:50.152 : Chapter 19
    02:01:30.617 : Chapter 20
    Menu #2
    ID : 7
    Codec ID : text
    Duration : 2h 9mn
    Language : English
    Encoded date : UTC 2016-03-13 10:13:09
    Tagged date : UTC 2016-03-13 10:13:09
    Menu For : 2,1
    00:00:00.000 : Chapter 1
    00:08:20.792 : Chapter 2
    00:14:30.578 : Chapter 3
    00:21:51.560 : Chapter 4
    00:27:38.949 : Chapter 5
    00:35:48.813 : Chapter 6
    00:45:39.028 : Chapter 7
    00:49:12.241 : Chapter 8
    00:53:20.656 : Chapter 9
    00:59:36.615 : Chapter 10
    01:05:29.259 : Chapter 11
    01:10:47.577 : Chapter 12
    01:17:30.729 : Chapter 13
    01:23:30.088 : Chapter 14
    01:30:02.522 : Chapter 15
    01:34:27.537 : Chapter 16
    01:42:52.583 : Chapter 17
    01:50:57.985 : Chapter 18
    01:55:50.152 : Chapter 19
    02:01:30.617 : Chapter 20
    Bit rate mode : VBR

    x264 лог

    x264 [info]: frame I:1182  Avg QP:18.91  size:204323
    x264 [info]: frame P:40267 Avg QP:21.35  size: 59301
    x264 [info]: frame B:144321 Avg QP:22.44  size: 35433
    x264 [info]: consecutive B-frames:  5.2%  1.2%  4.6%  4.3% 10.2% 63.3%  5.7%  0.9%  1.2%  1.0%  0.4%  0.5%  0.3%  0.2%  0.2%  0.1%  0.7%
    x264 [info]: mb I  I16..4:  6.0% 87.3%  6.7%
    x264 [info]: mb P  I16..4:  0.9%  8.3%  0.4%  P16..4: 46.3% 15.4% 11.1%  0.1%  0.0%    skip:17.5%
    x264 [info]: mb B  I16..4:  0.0%  2.1%  0.0%  B16..8: 44.3%  8.4%  1.8%  direct: 6.1%  skip:37.2%  L0:46.3% L1:47.6% BI: 6.1%
    x264 [info]: 8x8 transform intra:91.1% inter:66.6%
    x264 [info]: direct mvs  spatial:99.2% temporal:0.8%
    x264 [info]: coded y,uvDC,uvAC intra: 93.7% 55.2% 20.3% inter: 32.4% 16.0% 2.0%
    x264 [info]: i16 v,h,dc,p: 46% 21%  9% 24%
    x264 [info]: i8 v,h,dc,ddl,ddr,vr,hd,vl,hu:  8%  7% 10% 11% 14% 13% 12% 12% 12%
    x264 [info]: i4 v,h,dc,ddl,ddr,vr,hd,vl,hu: 11% 10%  5%  9% 14% 15% 14% 11% 12%
    x264 [info]: i8c dc,h,v,p: 45% 26% 20%  9%
    x264 [info]: Weighted P-Frames: Y:3.9% UV:0.7%
    x264 [info]: ref P L0: 46.3% 10.1% 29.2% 11.8%  2.3%  0.3%
    x264 [info]: ref B L0: 79.5% 16.6%  3.9%
    x264 [info]: ref B L1: 87.8% 12.2%
    x264 [info]: kb/s:7994.85

    Скриншоты

    -

    Релиз подготовлен для просмотра на Apple TV, iPad, iPhone, iPod Touch.
    Для просмотра данного релиза на компьютере с ОС Windows рекомендуется использовать VLC media player
    Скачать .torrent

    Скачать торрент-файл бесплатно и на максимальной скорости!

    Как скачивать? · Что такое торрент? · Рейтинг и ограничения

    !ВНИМАНИЕ!
    Сайт не распространяет и не хранит электронные версии произведений, а занимается лишь лишь предоставлением доступа к создаваемому пользователями каталогу ссылок на торрент-файлы, которые содержат только списки хеш-сумм, убедительная просьба с жалобами обращаться напрямую к пользователю. Файлы для обмена на трекере предоставлены пользователями сайта, и администрация не несёт ответственности за их содержание. Просьба не заливать файлы, защищенные авторскими правами, а также файлы нелегального содержания!


    _________________
    [Профиль] [ЛС]
    Показать сообщения:    
    Ответить на тему

    Текущее время: Сегодня, в 04:16

    Часовой пояс: GMT + 2



    Вы не можете начинать темы
    Вы не можете отвечать на сообщения
    Вы не можете редактировать свои сообщения
    Вы не можете удалять свои сообщения
    Вы не можете голосовать в опросах
    Вы не можете прикреплять файлы к сообщениям
    Вы не можете скачивать файлы