BitTorrentTracker PerecTracker.org
BitTorrentTracker PerecTracker.org
    
Регистрация  ·  Вход
 
 · 
Забыли пароль?

  • Прогулка среди могил / A Walk Among the Tombstones (Скотт Фрэнк / Scott Frank) [2014, США, детектив, триллер, криминал, драма, BDRip-AVC] Dub + Original + Sub (rus, eng)

    Ответить на тему
     
    Автор Сообщение

    rechyn

    Создавать темы 13-Мар-2016 05:49

           

    [Цитировать]

    Прогулка среди могил / A Walk Among the Tombstones«Люди боятся не того, чего стоит бояться»-Страна: США
    Жанр: детектив, триллер, криминал, драма
    Год выпуска: 2014
    Продолжительность: 01:54:05
    Перевод: Профессиональный (полное дублирование) (IP-TV)
    Оригинальная аудиодорожка: английский
    Cубтитры: русские, английские
    Навигация по главам: есть
    Режиссёр: Скотт Фрэнк / Scott Frank
    В ролях: Лиам Нисон, Дэн Стивенс, Дэвид Харбор, Бойд Холбрук, Астро, Оулавюр Дарри Оулафссон, Морис Комт, Патрик МакДэйд, Лучиано Акуна мл., Ганс Марреро
    Описание: Нью-Йорк охватывает волна странных и страшных убийств. Муж одной из жертв, наркобарон, нанимает бывшего полицейского, чтобы тот добрался до убийцы жены. Частный детектив Скаддер видит то, чего не замечает полиция, и проникает туда, куда копы боятся даже сунуть нос. Распутывая дьявольские преступления, он понимает, что люди боятся совсем не того.

    Качество видео: BDRip-AVC (исходник - BDRemux|A.Walk.Among.the.Tombstones.2014.1080p.BluRay.REMUX.AVC.DTS-HD.MA.5.1-RARBG)
    Формат видео: MKV
    Видео: x264, 1152x482 (2.40:1), 23,976 fps, ~1970 kbps, 0.148 bit/pixel
    Аудио 1: 48 kHz, AC3 Dolby Digital, 3/2 (L,C,R,l,r) + LFE ch, ~384 kbps [русский]
    Аудио 2: 48 kHz, AC3 Dolby Digital, 3/2 (L,C,R,l,r) + LFE ch, ~384 kbps [английский]
    Формат субтитров: softsub (SRT)
    MediaInfo | x264 log
    Format : Matroska
    Format version : Version 4 / Version 2
    File size : 2.18 GiB
    Duration : 1h 54mn
    Overall bit rate : 2 739 Kbps
    Movie name : Прогулка среди могил / A Walk Among the Tombstones (2014) :: AFM ::
    Encoded date : UTC 2016-03-12 21:05:18
    Writing application : mkvmerge v8.3.0 ('Over the Horizon') 32bit
    Writing library : libebml v1.3.1 + libmatroska v1.4.2
    Video
    ID : 1
    Format : AVC
    Format/Info : Advanced Video Codec
    Format profile : High@L4.1
    Format settings, CABAC : Yes
    Format settings, ReFrames : 10 frames
    Codec ID : V_MPEG4/ISO/AVC
    Duration : 1h 54mn
    Bit rate : 1 970 Kbps
    Width : 1 152 pixels
    Height : 482 pixels
    Display aspect ratio : 2.40:1
    Frame rate mode : Constant
    Frame rate : 23.976 fps
    Color space : YUV
    Chroma subsampling : 4:2:0
    Bit depth : 8 bits
    Scan type : Progressive
    Bits/(Pixel*Frame) : 0.148
    Stream size : 1.53 GiB (70%)
    Title : BDRip by AFM [RuTracker.org]
    Writing library : x264 core 148 r2665+53 6629127 t_mod_Custom [8-bit@all X86_64]
    Encoding settings : cabac=1 / ref=10 / deblock=1:-3:-3 / analyse=0x3:0x113 / me=umh / subme=10 / psy=1 / fade_compensate=0.00 / psy_rd=1.00:0.00 / mixed_ref=1 / me_range=32 / chroma_me=1 / trellis=2 / 8x8dct=1 / cqm=0 / deadzone=21,11 / fast_pskip=0 / chroma_qp_offset=-2 / threads=6 / lookahead_threads=1 / sliced_threads=0 / nr=0 / decimate=0 / interlaced=0 / bluray_compat=0 / constrained_intra=0 / fgo=0 / bframes=12 / b_pyramid=2 / b_adapt=2 / b_bias=0 / direct=3 / weightb=1 / open_gop=0 / weightp=2 / keyint=250 / keyint_min=23 / scenecut=40 / intra_refresh=0 / rc_lookahead=40 / rc=2pass / mbtree=0 / bitrate=1970 / ratetol=1.0 / qcomp=0.65 / qpmin=0:0:0 / qpmax=69:69:69 / qpstep=4 / cplxblur=20.0 / qblur=0.5 / vbv_maxrate=50000 / vbv_bufsize=62500 / nal_hrd=none / filler=0 / ip_ratio=1.35 / pb_ratio=1.30 / aq=1:0.80 / aq-sensitivity=10.00 / aq-factor=1.00:1.00:1.00 / aq2=0 / aq3=0
    Language : English
    Default : Yes
    Forced : No
    DURATION : 01:54:05.172000000
    Audio #1
    ID : 2
    Format : AC-3
    Format/Info : Audio Coding 3
    Mode extension : CM (complete main)
    Format settings, Endianness : Big
    Codec ID : A_AC3
    Duration : 1h 54mn
    Bit rate mode : Constant
    Bit rate : 384 Kbps
    Channel(s) : 6 channels
    Channel positions : Front: L C R, Side: L R, LFE
    Sampling rate : 48.0 KHz
    Compression mode : Lossy
    Stream size : 313 MiB (14%)
    Title : Dub, AC3 5.1 ~384 kbps
    Language : Russian
    Default : Yes
    Forced : No
    Audio #2
    ID : 3
    Format : AC-3
    Format/Info : Audio Coding 3
    Mode extension : CM (complete main)
    Format settings, Endianness : Big
    Codec ID : A_AC3
    Duration : 1h 54mn
    Bit rate mode : Constant
    Bit rate : 384 Kbps
    Channel(s) : 6 channels
    Channel positions : Front: L C R, Side: L R, LFE
    Sampling rate : 48.0 KHz
    Compression mode : Lossy
    Stream size : 313 MiB (14%)
    Title : Original, AC3 5.1 ~384 kbps
    Language : English
    Default : No
    Forced : No
    Text #1
    ID : 4
    Format : UTF-8
    Codec ID : S_TEXT/UTF8
    Codec ID/Info : UTF-8 Plain Text
    Language : Russian
    Default : No
    Forced : No
    Text #2
    ID : 5
    Format : UTF-8
    Codec ID : S_TEXT/UTF8
    Codec ID/Info : UTF-8 Plain Text
    Language : English
    Default : No
    Forced : No
    Menu
    00:00:00.000 : en:Chapter 01
    00:06:05.490 : en:Chapter 02
    00:12:23.576 : en:Chapter 03
    00:19:49.730 : en:Chapter 04
    00:25:04.378 : en:Chapter 05
    00:31:19.377 : en:Chapter 06
    00:37:34.127 : en:Chapter 07
    00:42:39.682 : en:Chapter 08
    00:48:59.061 : en:Chapter 09
    00:55:30.452 : en:Chapter 10
    01:02:32.540 : en:Chapter 11
    01:07:45.019 : en:Chapter 12
    01:12:31.305 : en:Chapter 13
    01:16:49.980 : en:Chapter 14
    01:24:01.036 : en:Chapter 15
    01:28:31.056 : en:Chapter 16
    01:35:01.321 : en:Chapter 17
    01:39:32.049 : en:Chapter 18
    01:44:18.711 : en:Chapter 19
    01:50:10.729 : en:Chapter 20

    x264

    x264 [info]: frame I:1209 Avg QP:12.36 size: 86824
    x264 [info]: frame P:31646 Avg QP:15.26 size: 23961
    x264 [info]: frame B:131265 Avg QP:17.23 size: 6260
    x264 [info]: consecutive B-frames: 1.7% 2.0% 5.4% 11.9% 13.3% 44.8% 7.4% 3.3% 2.5% 1.5% 2.0% 2.1% 2.1%
    x264 [info]: mb I I16..4: 7.2% 76.2% 16.5%
    x264 [info]: mb P I16..4: 1.2% 7.0% 1.2% P16..4: 35.6% 29.1% 17.4% 0.0% 0.0% skip: 8.6%
    x264 [info]: mb B I16..4: 0.1% 0.4% 0.1% B16..8: 35.1% 13.5% 3.6% direct: 3.5% skip:43.8% L0:48.3% L1:43.1% BI: 8.6%
    x264 [info]: 8x8 transform intra:75.0% inter:56.8%
    x264 [info]: direct mvs spatial:98.5% temporal:1.5%
    x264 [info]: coded y,uvDC,uvAC intra: 80.3% 83.1% 69.3% inter: 18.2% 16.0% 9.4%
    x264 [info]: i16 v,h,dc,p: 63% 11% 6% 19%
    x264 [info]: i8 v,h,dc,ddl,ddr,vr,hd,vl,hu: 21% 10% 11% 7% 10% 11% 10% 10% 10%
    x264 [info]: i4 v,h,dc,ddl,ddr,vr,hd,vl,hu: 29% 8% 5% 8% 11% 11% 10% 9% 9%
    x264 [info]: i8c dc,h,v,p: 45% 22% 20% 13%
    x264 [info]: Weighted P-Frames: Y:97.3% UV:0.8%
    x264 [info]: ref P L0: 44.5% 7.0% 19.5% 6.9% 6.8% 4.3% 4.4% 2.1% 2.4% 1.9% 0.2% 0.0%
    x264 [info]: ref B L0: 59.6% 16.1% 8.6% 5.0% 3.8% 3.2% 2.4% 1.0% 0.4%
    x264 [info]: ref B L1: 89.8% 10.2%
    x264 [info]: kb/s:1969.20

    Скриншоты

    с названием

    Скачать .torrent

    Скачать торрент-файл бесплатно и на максимальной скорости!

    Как скачивать? · Что такое торрент? · Рейтинг и ограничения

    !ВНИМАНИЕ!
    Сайт не распространяет и не хранит электронные версии произведений, а занимается лишь лишь предоставлением доступа к создаваемому пользователями каталогу ссылок на торрент-файлы, которые содержат только списки хеш-сумм, убедительная просьба с жалобами обращаться напрямую к пользователю. Файлы для обмена на трекере предоставлены пользователями сайта, и администрация не несёт ответственности за их содержание. Просьба не заливать файлы, защищенные авторскими правами, а также файлы нелегального содержания!


    _________________
    [Профиль] [ЛС]
    Показать сообщения:    
    Ответить на тему

    Текущее время: Сегодня, в 20:46

    Часовой пояс: GMT + 2



    Вы не можете начинать темы
    Вы не можете отвечать на сообщения
    Вы не можете редактировать свои сообщения
    Вы не можете удалять свои сообщения
    Вы не можете голосовать в опросах
    Вы не можете прикреплять файлы к сообщениям
    Вы не можете скачивать файлы