BitTorrentTracker PerecTracker.org
BitTorrentTracker PerecTracker.org
    
Регистрация  ·  Вход
 
 · 
Забыли пароль?

  • Его игра / He Got Game (Спайк Ли / Spike Lee) [1998, США, драма, спорт, BDRip, HD (720p)] DVO, AVO, Original + sub (rus, eng)

    Ответить на тему
     
    Автор Сообщение

    Flirldrerve

    Создавать темы 13-Мар-2016 01:48

           

    [Цитировать]

    Его игра / He Got Game
    The father, the son and the holy game.
    7.436 / 10
    -Год выпуска: 1998
    Страна: США
    Жанр: драма, спорт
    Продолжительность: 02:10:58
    Перевод: Профессиональный двухголосый перевод и авторский одноголосый закадровый перевод
    Оригинальная аудиодорожка: Есть
    Cубтитры: Русские полные и английские полные
    Режиссёр: Спайк Ли
    Сценарий: Спайк Ли
    Продюсер: Соня Буррес, Джон Килик, Спайк Ли
    Оператор: Эллен Кёрас, Малик Хасан Сайид
    Композитор: Скотт Харкисс, Аарон Копланд
    Художник: Винн Томас, Дэвид Стейн, Сандра Эрнандез
    Монтаж: Бэрри Александер Браун
    В ролях: Дензел Вашингтон, Рэй Аллен, Милла Йовович, Розарио Доусон, Хилл Харпер, Зельда Харрис, Нед Битти, Джим Браун, Джозеф Лайл Тейлор, Билл Нанн
    Бюджет: $25 000 000
    Сборы в США: $21 567 853
    Мировая премьера: 1 мая 1998
    Описание: У осужденного за убийство Джейка Шатлсуорта появляется призрачный шанс выйти на свободу раньше, чем через положенные ему 15 лет. Он просто должен убедить своего сына — талантливого баскетболиста — поступить в определенный университет.
    С этой целью два сопровождающих агента привозят Джейка в Нью-Йорк и селят в гадюшник, именуемый гостиницей. С радиомаяком на ноге и проституткой по соседству, Джейк получает несколько дней свободы, чтобы вновь обрести сына, мать которого он убил шесть лет назад…-Качество исходника: [url=viewtopic.php?t=4123559]BD-Remux 1080i[/url]
    Качество: BDRip
    Тип: 720p
    Контейнер: m4v
    Видео: 1280x690 at 25.000 fps, MPEG-4 AVC, ~7000 kbps avg
    Аудио#1: Russian: 48 kHz, ААС, 2/0 (L,R), ~160.00 kbps avg |Двухголосый закадровый, Twister|
    Аудио#2: Russian: 48 kHz, ААС, 2/0 (L,R), ~160.00 kbps avg |Одноголосый закадровый, А. Гаврилов|
    Аудио#3: English: 48 kHz, ААС, 2/0 (L,R), ~160.00 kbps avg
    Аудио#4: Russian: 48 kHz, AC3, 3/2 (L,C,R,l,r) + LFE ch, ~384.00 kbps avg |Двухголосый закадровый, Twister|
    Аудио#5: English: 48 kHz, AC3, 3/2 (L,C,R,l,r) + LFE ch, ~640.00 kbps avg
    Субтитры №1: Russian: |Полные|
    Субтитры №2: English: |Полные|-

    iTunes Meta Tags for country gb

    Name: He Got Game
    Artist: Spike Lee
    Genre: Drama
    Release Date: 1998-05-01T08:00:00Z
    Description: У осужденного за убийство Джейка Шатлсуорта появляется призрачный шанс выйти на свободу раньше, чем через положенные ему 15 лет. Он просто должен убедить своего сына — талантливого баскетболиста — поступить в определенный университет.
    С этой целью два сопровождающих агента привозят Джейка в Нью-Йорк и селят в гадюшник, именуемый гостиницей. С радиомаяком на ноге и проституткой по соседству, Джейк получает несколько дней свободы, чтобы вновь обрести сына, мать которого он убил шесть лет назад…
    Long Description: У осужденного за убийство Джейка Шатлсуорта появляется призрачный шанс выйти на свободу раньше, чем через положенные ему 15 лет. Он просто должен убедить своего сына — талантливого баскетболиста — поступить в определенный университет.
    С этой целью два сопровождающих агента привозят Джейка в Нью-Йорк и селят в гадюшник, именуемый гостиницей. С радиомаяком на ноге и проституткой по соседству, Джейк получает несколько дней свободы, чтобы вновь обрести сына, мать которого он убил шесть лет назад…
    Rating: 15
    Studio: Touchstone Pictures
    Cast: Дензел Вашингтон, Рэй Аллен, Милла Йовович, Розарио Доусон, Хилл Харпер, Зельда Харрис, Нед Битти, Джим Браун, Джозеф Лайл Тейлор, Билл Нанн
    Director: Спайк Ли
    Producers: Соня Буррес, Джон Килик, Спайк Ли
    Screenwriters: Спайк Ли
    Copyright: © Buena Vista Home Entertainment, Inc.
    contentID: 220251642
    XID: Apple:vendor_id:1998-4311
    Sort Name: He Got Game

    MediaInfo 720p Release

    Общее
    Полное имя : He Got Game (HD).m4v
    Формат : MPEG-4
    Идентификатор кодека : M4V  (M4V /M4A /mp42/isom)
    Размер файла : 7,73 Гбайт
    Продолжительность : 2 ч. 10 м.
    Режим общего битрейта : Переменный
    Общий поток : 8451 Кбит/сек
    Название фильма : He Got Game
    Исполнитель : Spike Lee
    Режиссёр : Спайк Ли
    Исполнитель : Дензел Вашингтон / Рэй Аллен / Милла Йовович / Розарио Доусон / Хилл Харпер / Зельда Харрис / Нед Битти / Джим Браун / Джозеф Лайл Тейлор / Билл Нанн
    Сценарист : Спайк Ли
    Продюсер : Соня Буррес / Джон Килик / Спайк Ли
    Студия-производитель : Touchstone Pictures
    Жанр : Drama
    Тип содержимого : Short Film
    Описание : У осужденного за убийство Джейка Шатлсуорта появляется призрачный шанс выйти на свободу раньше, чем через положенные ему 15 лет. Он просто должен убедить своего сына - талантливого баскетболиста - поступить в определенный университет.
    Дата записи : UTC 1998-05-01 08:00:00
    Дата кодирования : UTC 2013-02-27 11:00:05
    Дата пометки : UTC 2016-03-12 19:49:07
    Авторское право : © Buena Vista Home Entertainment, Inc.
    Обложка : Yes
    Оценка : None
    Title/Sort : He Got Game
    LongDescription : У осужденного за убийство Джейка Шатлсуорта появляется призрачный шанс выйти на свободу раньше, чем через положенные ему 15 лет. Он просто должен убедить своего сына - талантливого баскетболиста - поступить в определенный университет. / С этой целью два сопровождающих агента привозят Джейка в Нью-Йорк и селят в гадюшник, именуемый гостиницей. С радиомаяком на ноге и проституткой по соседству, Джейк получает несколько дней свободы, чтобы вновь обрести сына, мать которого он убил шесть лет назад…
    HDVideo : Yes
    AppleStoreCatalogID : 220251642
    Vendor : Apple:vendor_id:1998-4311
    ContentRating : uk-movie|15|350|
    Видео #1
    Идентификатор : 1
    Формат : AVC
    Формат/Информация : Advanced Video Codec
    Профиль формата : High@L3.1
    Параметр CABAC формата : Нет
    Параметр ReFrames формата : 3 кадра
    Идентификатор кодека : avc1
    Идентификатор кодека/Информация : Advanced Video Coding
    Продолжительность : 2 ч. 10 м.
    Битрейт : 7000 Кбит/сек
    Ширина : 1280 пикселей
    Высота : 690 пикселей
    Соотношение сторон : 1,85:1
    Режим частоты кадров : Постоянный
    Частота кадров : 25,000 кадров/сек
    Цветовое пространство : YUV
    Субдискретизация насыщенности : 4:2:0
    Битовая глубина : 8 бит
    Тип развёртки : Прогрессивная
    Бит/(Пиксели*Кадры) : 0.317
    Размер потока : 6,39 Гбайт (83%)
    Заголовок : Main Program
    Библиотека кодирования : x264 core 120
    Настройки программы : cabac=0 / ref=3 / deblock=1:1:-3 / analyse=0x3:0x113 / me=umh / subme=9 / psy=1 / psy_rd=0.90:0.00 / mixed_ref=1 / me_range=32 / chroma_me=1 / trellis=0 / 8x8dct=1 / cqm=0 / deadzone=21,11 / fast_pskip=1 / chroma_qp_offset=-2 / threads=3 / sliced_threads=0 / nr=0 / decimate=1 / interlaced=0 / bluray_compat=0 / constrained_intra=0 / bframes=3 / b_pyramid=0 / b_adapt=2 / b_bias=0 / direct=1 / weightb=0 / open_gop=0 / weightp=0 / keyint=250 / keyint_min=25 / scenecut=40 / intra_refresh=0 / rc_lookahead=40 / rc=2pass / mbtree=1 / bitrate=7000 / ratetol=1.0 / qcomp=0.60 / qpmin=3 / qpmax=69 / qpstep=4 / cplxblur=20.0 / qblur=0.5 / vbv_maxrate=9500 / vbv_bufsize=9500 / nal_hrd=none / ip_ratio=1.40 / aq=1:1.00
    Язык : English
    Дата кодирования : UTC 2013-02-27 11:00:05
    Дата пометки : UTC 2013-02-27 11:42:55
    Цветовой диапазон : Limited
    Основные цвета : BT.709
    Характеристики трансфера : BT.709
    Коэффициенты матрицы : BT.709
    Menus : 9,10
    Видео #2
    Идентификатор : 10
    Формат : JPEG
    Идентификатор кодека : jpeg
    Продолжительность : 2 ч. 10 м.
    Вид битрейта : Переменный
    Битрейт : 370 бит/сек
    Ширина : 640 пикселей
    Высота : 345 пикселей
    Соотношение сторон : 1,85:1
    Режим частоты кадров : Постоянный
    Частота кадров : 0,001 кадр/сек
    Цветовое пространство : YUV
    Субдискретизация насыщенности : 4:2:0
    Битовая глубина : 8 бит
    Метод сжатия : С потерями
    Бит/(Пиксели*Кадры) : 1.676
    Размер потока : 542 Кбайт (0%)
    Заголовок : Chapter Images
    Язык : English
    Default : Нет
    Дата кодирования : UTC 2016-03-12 16:05:09
    Дата пометки : UTC 2016-03-12 16:05:10
    Menu For : 1
    Аудио #1
    Идентификатор : 2
    Формат : AAC
    Формат/Информация : Advanced Audio Codec
    Профиль формата : LC
    Идентификатор кодека : 40
    Продолжительность : 2 ч. 10 м.
    Вид битрейта : Переменный
    Битрейт : 164 Кбит/сек
    Максимальный битрейт : 234 Кбит/сек
    Каналы : 2 канала
    Расположение каналов : Front: L R
    Частота : 48,0 КГц
    Частота кадров : 46,875 кадров/сек (1024 spf)
    Метод сжатия : С потерями
    Размер потока : 154 Мбайт (2%)
    Заголовок : Russian DVO Twister Stereo
    Язык : Russian
    Default : Да
    Alternate group : 1
    Дата кодирования : UTC 2013-02-27 11:00:05
    Дата пометки : UTC 2013-02-27 11:07:59
    Fallback From : 5
    Menus : 9
    Аудио #2
    Идентификатор : 3
    Формат : AAC
    Формат/Информация : Advanced Audio Codec
    Профиль формата : LC
    Идентификатор кодека : 40
    Продолжительность : 2 ч. 10 м.
    Вид битрейта : Переменный
    Битрейт : 103 Кбит/сек
    Максимальный битрейт : 150 Кбит/сек
    Каналы : 2 канала
    Расположение каналов : Front: L R
    Частота : 48,0 КГц
    Частота кадров : 46,875 кадров/сек (1024 spf)
    Метод сжатия : С потерями
    Размер потока : 96,6 Мбайт (1%)
    Заголовок : Russian AVO A.Gavrilov Stereo
    Язык : Russian
    Default : Нет
    Alternate group : 1
    Дата кодирования : UTC 2013-02-27 11:00:05
    Дата пометки : UTC 2013-02-27 11:12:28
    Аудио #3
    Идентификатор : 4
    Формат : AAC
    Формат/Информация : Advanced Audio Codec
    Профиль формата : LC
    Идентификатор кодека : 40
    Продолжительность : 2 ч. 10 м.
    Вид битрейта : Переменный
    Битрейт : 165 Кбит/сек
    Максимальный битрейт : 255 Кбит/сек
    Каналы : 2 канала
    Расположение каналов : Front: L R
    Частота : 48,0 КГц
    Частота кадров : 46,875 кадров/сек (1024 spf)
    Метод сжатия : С потерями
    Размер потока : 154 Мбайт (2%)
    Заголовок : English Stereo
    Язык : English
    Default : Нет
    Alternate group : 1
    Дата кодирования : UTC 2013-02-27 11:00:05
    Дата пометки : UTC 2013-02-27 11:16:45
    Fallback From : 6
    Аудио #4
    Идентификатор : 5
    Формат : AC-3
    Формат/Информация : Audio Coding 3
    Расширение режима : CM (complete main)
    Параметр Endianness формата : Big
    Идентификатор кодека : ac-3
    Продолжительность : 2 ч. 10 м.
    Вид битрейта : Постоянный
    Битрейт : 384 Кбит/сек
    Каналы : 6 каналов
    Расположение каналов : Front: L C R, Side: L R, LFE
    Частота : 48,0 КГц
    Частота кадров : 31,250 кадров/сек (1536 spf)
    Битовая глубина : 16 бит
    Метод сжатия : С потерями
    Размер потока : 360 Мбайт (5%)
    Заголовок : Russian DVO Twister DD 5.1
    Язык : Russian
    Default : Inherited From: 2
    Alternate group : 1
    Дата кодирования : UTC 2013-02-27 11:00:05
    Дата пометки : UTC 2013-02-27 11:22:06
    Fallback To : 2
    Аудио #5
    Идентификатор : 6
    Формат : AC-3
    Формат/Информация : Audio Coding 3
    Расширение режима : CM (complete main)
    Параметр Endianness формата : Big
    Идентификатор кодека : ac-3
    Продолжительность : 2 ч. 10 м.
    Вид битрейта : Постоянный
    Битрейт : 640 Кбит/сек
    Каналы : 6 каналов
    Расположение каналов : Front: L C R, Side: L R, LFE
    Частота : 48,0 КГц
    Частота кадров : 31,250 кадров/сек (1536 spf)
    Битовая глубина : 16 бит
    Метод сжатия : С потерями
    Размер потока : 600 Мбайт (8%)
    Заголовок : English DD 5.1
    Язык : English
    Default : Нет
    Alternate group : 1
    Дата кодирования : UTC 2013-02-27 11:00:05
    Дата пометки : UTC 2013-02-27 11:29:49
    Fallback To : 4
    Текст #1
    Идентификатор : 7
    Формат : Timed Text
    Режим смешивания : sbtl
    Идентификатор кодека : tx3g
    Продолжительность : 2 ч. 3 м.
    Вид битрейта : Переменный
    Битрейт : 121 бит/сек
    Размер потока : 110 Кбайт (0%)
    Заголовок : Russian Subtitle
    Язык : Russian
    Default : Да
    Forced : Нет
    Alternate group : 2
    Дата кодирования : UTC 2013-02-27 11:00:05
    Дата пометки : UTC 2013-02-27 11:29:56
    Текст #2
    Идентификатор : 8
    Формат : Timed Text
    Режим смешивания : sbtl
    Идентификатор кодека : tx3g
    Продолжительность : 2 ч. 10 м.
    Вид битрейта : Переменный
    Битрейт : 106 бит/сек
    Размер потока : 101 Кбайт (0%)
    Заголовок : English Subtitle
    Язык : English
    Default : Нет
    Forced : Нет
    Alternate group : 2
    Дата кодирования : UTC 2013-02-27 11:00:05
    Дата пометки : UTC 2013-02-27 11:30:02
    Меню #1
    00:00:00.000 : Program Start
    00:09:36.920 : Opening Credits
    00:18:51.120 : Big Fan
    00:34:39.000 : Coney Island Motel
    00:44:53.320 : Mixed Reception
    00:57:04.160 : Crowding The Court
    01:06:52.320 : Disturbance Next Door
    01:15:14.280 : No Love Lost
    01:27:05.720 : Scouting Agent
    01:39:08.440 : Playing Hardball
    01:50:35.400 : Casualty Of War
    02:00:35.800 : Special Treatment
    Меню #2
    Идентификатор : 9
    Идентификатор кодека : text
    Продолжительность : 2 ч. 10 м.
    Заголовок : Chapter Titles
    Язык : English
    Дата кодирования : UTC 2016-03-12 16:05:04
    Дата пометки : UTC 2016-03-12 16:05:04
    Menu For : 2,1
    00:00:00.000 : Program Start
    00:09:36.920 : Opening Credits
    00:18:51.120 : Big Fan
    00:34:39.000 : Coney Island Motel
    00:44:53.320 : Mixed Reception
    00:57:04.160 : Crowding The Court
    01:06:52.320 : Disturbance Next Door
    01:15:14.280 : No Love Lost
    01:27:05.720 : Scouting Agent
    01:39:08.440 : Playing Hardball
    01:50:35.400 : Casualty Of War
    02:00:35.800 : Special Treatment
    Вид битрейта : VBR

    x264 лог 720p Release

    x264 [info]: frame I:1681  Avg QP:15.33  size:122399  PSNR Mean Y:47.84 U:51.79 V:52.08 Avg:48.81 Global:48.43
    x264 [info]: frame P:63383 Avg QP:17.24  size: 56140  PSNR Mean Y:45.26 U:49.50 V:49.81 Avg:46.27 Global:45.77
    x264 [info]: frame B:131396 Avg QP:18.92  size: 23573  PSNR Mean Y:43.91 U:49.18 V:49.49 Avg:45.07 Global:44.64
    x264 [info]: consecutive B-frames:  2.1% 12.5% 40.9% 44.5%
    x264 [info]: mb I  I16..4:  4.1% 64.2% 31.7%
    x264 [info]: mb P  I16..4:  1.0% 10.7%  4.2%  P16..4: 36.7% 32.6% 12.6%  0.0%  0.0%    skip: 2.2%
    x264 [info]: mb B  I16..4:  0.2%  2.2%  0.8%  B16..8: 49.1% 19.4%  3.2%  direct: 7.1%  skip:18.1%  L0:42.7% L1:47.1% BI:10.2%
    x264 [info]: 8x8 transform intra:67.8% inter:46.0%
    x264 [info]: coded y,uvDC,uvAC intra: 91.1% 80.9% 52.8% inter: 38.4% 23.6% 2.4%
    x264 [info]: i16 v,h,dc,p: 43% 10%  6% 42%
    x264 [info]: i8 v,h,dc,ddl,ddr,vr,hd,vl,hu: 11%  7%  6% 11% 15% 15% 13% 11% 10%
    x264 [info]: i4 v,h,dc,ddl,ddr,vr,hd,vl,hu: 24%  6%  3% 10% 14% 14% 11% 10%  8%
    x264 [info]: i8c dc,h,v,p: 47% 19% 22% 12%
    x264 [info]: ref P L0: 67.0% 19.8% 13.3%
    x264 [info]: ref B L0: 78.3% 21.7%
    x264 [info]: SSIM Mean Y:0.9765357 (16.296db)
    x264 [info]: PSNR Mean Y:44.379 U:49.306 V:49.618 Avg:45.491 Global:44.993 kb/s:6985.09

    Скриншоты 720p Release

    -

    Релиз подготовлен для просмотра на Apple TV, iPad, iPhone, iPod Touch.
    Для просмотра данного релиза на компьютере с ОС Windows рекомендуется использовать VLC media player
    Скачать .torrent

    Скачать торрент-файл бесплатно и на максимальной скорости!

    Как скачивать? · Что такое торрент? · Рейтинг и ограничения

    !ВНИМАНИЕ!
    Сайт не распространяет и не хранит электронные версии произведений, а занимается лишь лишь предоставлением доступа к создаваемому пользователями каталогу ссылок на торрент-файлы, которые содержат только списки хеш-сумм, убедительная просьба с жалобами обращаться напрямую к пользователю. Файлы для обмена на трекере предоставлены пользователями сайта, и администрация не несёт ответственности за их содержание. Просьба не заливать файлы, защищенные авторскими правами, а также файлы нелегального содержания!


    _________________
    [Профиль] [ЛС]
    Показать сообщения:    
    Ответить на тему

    Текущее время: Сегодня, в 08:09

    Часовой пояс: GMT + 2



    Вы не можете начинать темы
    Вы не можете отвечать на сообщения
    Вы не можете редактировать свои сообщения
    Вы не можете удалять свои сообщения
    Вы не можете голосовать в опросах
    Вы не можете прикреплять файлы к сообщениям
    Вы не можете скачивать файлы