Register  ·  Log in
Forgot password?

  • Наркотик / Dope (Рик Фамуйива / Rick Famuyiwa) [2015, США, драма, комедия, криминал, BDRip] MVO

    Reply to topic
    Author Message


    Post 13-Mar-2016 02:48



    Наркотик / Dope
    Страна: США
    Жанр: драма, комедия, криминал
    Год выпуска: 2015
    Продолжительность: 01:43:18
    Перевод: Профессиональный (многоголосый закадровый)
    Cубтитры: нет
    Режиссер: Рик Фамуйива / Rick Famuyiwa
    В ролях: Раким Мэйерс, Блейк Андерсон, Брюс Битти, Де’андре Бондс, Джулиан Брэнд, Куинси Браун, Кирси Клемонс, Кимберли Элиз, Рик Фокс, Кристофер Гленн...
    Описание: В центре истории подросток, мечтающий учиться в Гарварде, однако живет он в преступном района Инглвуда, откуда выбраться не так уж и просто.
    Доп. информация: [url=viewtopic.php?t=5102067]viewtopic.php?t=5102067[/url]
    Качество видео: BDRip Blu-Ray (1080p)|kinozal
    Формат видео: AVI
    Видео: 720x304 (2.37:1), 23.976 fps, XviD build 73 ~1815 kbps avg, 0.35 bit/pixel
    Аудио: 48 kHz, AC3 Dolby Digital, 2/0 (L,R) ch, ~192 kbps


    Формат : AVI
    Формат/Информация : Audio Video Interleave
    Размер файла : 1,46 Гбайт
    Продолжительность : 1 ч. 43 м.
    Общий поток : 2017 Кбит/сек
    Программа кодирования : VirtualDubMod | || (build 2550/release)
    Библиотека кодирования : VirtualDubMod build 2550/release
    Идентификатор : 0
    Формат : MPEG-4 Visual
    Профиль формата : Advanced Simple@L5
    Параметр BVOP формата : 1
    Параметр QPel формата : Нет
    Параметр GMC формата : Без точки перехода
    Параметр матрицы формата : Default (MPEG)
    Идентификатор кодека : XVID
    Идентификатор кодека/Подсказка : XviD
    Продолжительность : 1 ч. 43 м.
    Битрейт : 1816 Кбит/сек
    Ширина : 720 пикселей
    Высота : 304 пикселя
    Соотношение сторон : 2,35:1
    Частота кадров : 23,976 (23976/1000) кадра/сек
    Цветовое пространство : YUV
    Субдискретизация насыщенности : 4:2:0
    Битовая глубина : 8 бит
    Тип развёртки : Прогрессивная
    Метод сжатия : С потерями
    Бит/(Пиксели*Кадры) : 0.346
    Размер потока : 1,31 Гбайт (90%)
    Библиотека кодирования : XviD 73
    Идентификатор : 1
    Формат : AC-3
    Формат/Информация : Audio Coding 3
    Расширение режима : CM (complete main)
    Параметр Endianness формата : Big
    Идентификатор кодека : 2000
    Продолжительность : 1 ч. 43 м.
    Вид битрейта : Постоянный
    Битрейт : 192 Кбит/сек
    Каналы : 2 канала
    Расположение каналов : Front: L R
    Частота : 48,0 КГц
    Частота кадров : 31,250 кадров/сек (1536 spf)
    Метод сжатия : С потерями
    Размер потока : 142 Мбайт (10%)
    Выравнивание : Разделение по промежуткам
    Продолжительность промежутка : 42 мс. (1,00 видеокадр)
    Время предзагрузки промежутка : 500 мс.


    Download .torrent

    Download free and at maximum speed!

    How to Download? · What is a torrent? · Ratings and Limitations

    The site does not extend and does not store electronic(digital) versions of products, and only gives access to a reference catalogue created by users on torrent-files which contain only lists of the hash-sums, the earnest entreaty, with complaints(abuse) to access directly to the user. Files for an exchange on tracker are given by users of a site, and the administration does not bear the responsibility for their maintenance. The request to not fill in the files protected by copyrights, and also files of the illegal maintenance!

    [Profile] [PM]
    Display posts from previous:    
    Reply to topic

    The time now is: Today 18:43

    All times are GMT + 3 Hours

    You cannot post new topics in this forum
    You cannot reply to topics in this forum
    You cannot edit your posts in this forum
    You cannot delete your posts in this forum
    You cannot vote in polls in this forum
    You cannot attach files in this forum
    You cannot download files in this forum