BitTorrentTracker PerecTracker.org
BitTorrentTracker PerecTracker.org
    
Регистрация  ·  Вход
 
 · 
Забыли пароль?

  • На гребне волны / Point Break (Эриксон Кор / Ericson Core) [2015, США, Боевик, триллер, криминал, спорт, BDRip] Dub

    Ответить на тему
     
    Автор Сообщение

    rechyn

    Создавать темы 13-Мар-2016 01:48

           

    [Цитировать]

    На гребне волны / Point Break-Год выпуска: 2015
    Выпущено: США / Alcon Entertainment, DMG Entertainment
    Жанр: боевик, триллер, криминал, спорт
    Продолжительность: 01:53:50
    Перевод: Профессиональный (полное дублирование) BD CEE |Лицензия|
    Cубтитры: нет-Режиссер:
    Эриксон Кор / Ericson Core-В ролях:
    Люк Брейси (Utah), Эдгар Рамирес (Bodhi), Рэй Уинстон (Pappas), Тереза Палмер (Samsara), Матиас Варела (Grommet), Клеменс Шик (Roach), Тобиас Зантельман (Chowder), Макс Тириот (Jeff), Делрой Линдо (Instructor Hall), Николай Кински (Pascal Al Fariq), Джуда Льюис (Young Utah), Глайнис Барбер (FBI - Head of Investigations), Стив Туссэн (FBI Dept. Director #1), Джеймс ЛеГрос (FBI Dept. Director #2)-О фильме:
    Джонни — молодой агент ФБР, специализирующийся на работе под прикрытием. Он не раз выходил из самых сложных ситуаций, всегда доделывая свою работу до конца. Его очередным заданием становится проникновение в банду воров. Однако эти люди не обычные грабители: их главным отличием от остальных является увлечение экстремальными видами спорта. Свои умения они используют при каждом новом ограблении, и стать частью их команды очень непросто. Чтобы войти в банду и остановить преступников, Джонни придется доказать, что он такой же как они, а для этого ему не раз предстоит рискнуть собственной жизнью…-Релиз групп
    | | IMDB | КиноПоиск | Сэмпл |-Качество: BDRip [Blu-ray Disc | 1080p | HDCLUB]
    Формат: AVI
    Видео: 720x304 (2.37:1), 23.976 fps, XviD build 67 ~1452 kbps avg, 0.28 bit/pixel
    Аудио: 48 kHz, AC3 Dolby Digital, 3/2 (L,C,R,l,r) + LFE ch, ~384.00 kbps avg-

    Скриншоты

    -

    MediaInfo

    General
    Complete name                            : D:\Na_grebne_volny_2015_BDRip_by_Dalemake.avi
    Format                                   : AVI
    Format/Info                              : Audio Video Interleave
    File size                                : 1.47 GiB
    Duration                                 : 1h 53mn
    Overall bit rate                         : 1 846 Kbps
    Writing application                      : VirtualDubMod 1.5.10.3 | www.virtualdub-fr.org || (build 2550/release)
    Writing library                          : VirtualDubMod build 2550/release
    Video
    ID                                       : 0
    Format                                   : MPEG-4 Visual
    Format profile                           : Advanced Simple@L5
    Format settings, BVOP                    : 1
    Format settings, QPel                    : No
    Format settings, GMC                     : No warppoints
    Format settings, Matrix                  : Custom
    Codec ID                                 : XVID
    Codec ID/Hint                            : XviD
    Duration                                 : 1h 53mn
    Bit rate                                 : 1 453 Kbps
    Width                                    : 720 pixels
    Height                                   : 304 pixels
    Display aspect ratio                     : 2.35:1
    Frame rate                               : 23.976 (23976/1000) fps
    Color space                              : YUV
    Chroma subsampling                       : 4:2:0
    Bit depth                                : 8 bits
    Scan type                                : Progressive
    Compression mode                         : Lossy
    Bits/(Pixel*Frame)                       : 0.277
    Stream size                              : 1.16 GiB (79%)
    Writing library                          : XviD 67
    Audio
    ID                                       : 1
    Format                                   : AC-3
    Format/Info                              : Audio Coding 3
    Mode extension                           : CM (complete main)
    Format settings, Endianness              : Big
    Codec ID                                 : 2000
    Duration                                 : 1h 53mn
    Bit rate mode                            : Constant
    Bit rate                                 : 384 Kbps
    Channel(s)                               : 6 channels
    Channel positions                        : Front: L C R, Side: L R, LFE
    Sampling rate                            : 48.0 KHz
    Frame rate                               : 31.250 fps (1536 spf)
    Compression mode                         : Lossy
    Stream size                              : 313 MiB (21%)
    Alignment                                : Split accross interleaves
    Interleave, duration                     : 42 ms (1.00 video frame)
    Interleave, preload duration             : 500 ms

    Сравнение

    [url=viewtopic.php?t=5187854]viewtopic.php?t=5187854[/url]
    http://screenshotcomparison.com/comparison/165288-[url=viewtopic.php?t=5186202]viewtopic.php?t=5186202[/url]
    Звук Line
    -
    Скачать .torrent

    Скачать торрент-файл бесплатно и на максимальной скорости!

    Как скачивать? · Что такое торрент? · Рейтинг и ограничения

    !ВНИМАНИЕ!
    Сайт не распространяет и не хранит электронные версии произведений, а занимается лишь лишь предоставлением доступа к создаваемому пользователями каталогу ссылок на торрент-файлы, которые содержат только списки хеш-сумм, убедительная просьба с жалобами обращаться напрямую к пользователю. Файлы для обмена на трекере предоставлены пользователями сайта, и администрация не несёт ответственности за их содержание. Просьба не заливать файлы, защищенные авторскими правами, а также файлы нелегального содержания!


    _________________
    [Профиль] [ЛС]
    Показать сообщения:    
    Ответить на тему

    Текущее время: Сегодня, в 16:21

    Часовой пояс: GMT + 2



    Вы не можете начинать темы
    Вы не можете отвечать на сообщения
    Вы не можете редактировать свои сообщения
    Вы не можете удалять свои сообщения
    Вы не можете голосовать в опросах
    Вы не можете прикреплять файлы к сообщениям
    Вы не можете скачивать файлы