BitTorrentTracker PerecTracker.org
BitTorrentTracker PerecTracker.org
    
Регистрация  ·  Вход
 
 · 
Забыли пароль?

  • Дым / Дымъ (3 серии) (Аян Шахмалиева) [1992, драма, экранизация, DVB]

    Ответить на тему
     
    Автор Сообщение

    rechyn

    Создавать темы 12-Мар-2016 17:24

           

    [Цитировать]

    Дым / Дымъ (3 серии)
    Жанр: драма, экранизация
    Год выпуска: 1992
    Продолжительность: 01:06:24 + 01:01:51 + 01:03:19
    Режиссёр: Аян Шахмалиева
    В ролях: Лариса Борушко (Меньшова), Станислав Любшин, Владислав Ветров, Александр Романцов, Оксана Кирющенко, Алла Мещерякова, Виктор Степанов, Татьяна Васильева, Сергей Бехтерев, Александр Чередник, Георгий Мартиросян, Динара Друкарова, Ева Хмелинская, Татьяна Ташкова
    Описание: экранизация одноименного романа И. С. Тургенева. Конец 60-х годов ХIХ века. Русские в Баден-Бадене. Они спорят, ссорятся, суетятся, бросаются в крайности. Главный герой Литвинов, задыхаясь в хаосе пустых мнений, бесконечных и назойливых словопрений, вдруг попадает во власть живой, напряженной, трагической любви.
    Доп. информация: Запись потока *.ts со спутника Eutelsat Hot Bird 13B/C/D, 13° в.д., ремукс в *.MKV программой VideoReDo.
    Качество: DVB
    Формат: MKV
    Видео: MPEG2 Video, 704(768)x576 (4:3), 25,000 кадров/сек, 1935 Кбит/сек
    Аудио: MPEG Audio, 48,0 КГц, 192 Кбит/сек, 2 канала

    Сравнение

    [url=viewtopic.php?t=1295388]viewtopic.php?t=1295388[/url]
    http://screenshotcomparison.com/comparison/165284/

    MediaInfo

    Общее
    Уникальный идентификатор : 22896398314550483698905550262354775088 (0x1139AF9802EFFAC2B9D7ED1FD6730C30)
    Полное имя : D:\MPG\ДЫМ\ДЫМ 1 (inteRTV Nashe Kino).mkv
    Формат : Matroska
    Версия формата : Version 2
    Размер файла : 1,12 Гбайт
    Продолжительность : 1 ч. 6 м.
    Режим общего битрейта : Переменный
    Общий поток : 2421 Кбит/сек
    Программа кодирования : Lavf52.64.2
    Библиотека кодирования : Lavf52.64.2
    Видео
    Идентификатор : 1
    Формат : MPEG Video
    Версия формата : Version 2
    Профиль формата : Main@Main
    Параметр BVOP формата : Нет
    Параметр матрицы формата : Выборочная
    Идентификатор кодека : V_MPEG2
    Идентификатор кодека/Информация : MPEG 1 or 2 Video
    Продолжительность : 1 ч. 6 м.
    Вид битрейта : Переменный
    Битрейт : 2181 Кбит/сек
    Максимальный битрейт : 15,0 Мбит/сек
    Ширина : 704 пикселя
    Высота : 576 пикселей
    Соотношение сторон : 4:3
    Соотношение сторон в оригинале : 4:3
    Режим частоты кадров : Постоянный
    Частота кадров : 25,000 кадров/сек
    Стандарт вещания : PAL
    Цветовое пространство : YUV
    Субдискретизация насыщенности : 4:2:0
    Битовая глубина : 8 бит
    Тип развёртки : Чересстрочная
    Порядок развёртки : Верхнее поле первое
    Метод сжатия : С потерями
    Бит/(Пиксели*Кадры) : 0.215
    Временной код первого кадра : 00:00:00:00
    Оригинал временного кода : Group of pictures header
    Размер потока : 1,01 Гбайт (90%)
    Default : Да
    Forced : Нет
    Аудио
    Идентификатор : 2
    Формат : MPEG Audio
    Версия формата : Version 1
    Профиль формата : Layer 2
    Идентификатор кодека : A_MPEG/L2
    Идентификатор кодека/Подсказка : MP2
    Продолжительность : 1 ч. 6 м.
    Вид битрейта : Постоянный
    Битрейт : 192 Кбит/сек
    Каналы : 2 канала
    Частота : 48,0 КГц
    Метод сжатия : С потерями
    Задержка видео : -1 м. 5 с.
    Размер потока : 91,2 Мбайт (8%)
    Язык : Russian
    Default : Да
    Forced : Нет
    Общее
    Уникальный идентификатор : 253172997956301491681812359503470933382 (0xBE7758858673E43C59AA28C045303586)
    Полное имя : D:\MPG\ДЫМ\ДЫМ 2 (inteRTV Nashe Kino).mkv
    Формат : Matroska
    Версия формата : Version 2
    Размер файла : 1,04 Гбайт
    Продолжительность : 1 ч. 1 м.
    Режим общего битрейта : Переменный
    Общий поток : 2407 Кбит/сек
    Программа кодирования : Lavf52.64.2
    Библиотека кодирования : Lavf52.64.2
    Видео
    Идентификатор : 1
    Формат : MPEG Video
    Версия формата : Version 2
    Профиль формата : Main@Main
    Параметр BVOP формата : Нет
    Параметр матрицы формата : Выборочная
    Идентификатор кодека : V_MPEG2
    Идентификатор кодека/Информация : MPEG 1 or 2 Video
    Продолжительность : 1 ч. 1 м.
    Вид битрейта : Переменный
    Битрейт : 2167 Кбит/сек
    Максимальный битрейт : 15,0 Мбит/сек
    Ширина : 704 пикселя
    Высота : 576 пикселей
    Соотношение сторон : 4:3
    Соотношение сторон в оригинале : 4:3
    Режим частоты кадров : Постоянный
    Частота кадров : 25,000 кадров/сек
    Стандарт вещания : PAL
    Цветовое пространство : YUV
    Субдискретизация насыщенности : 4:2:0
    Битовая глубина : 8 бит
    Тип развёртки : Чересстрочная
    Порядок развёртки : Верхнее поле первое
    Метод сжатия : С потерями
    Бит/(Пиксели*Кадры) : 0.214
    Временной код первого кадра : 00:00:00:00
    Оригинал временного кода : Group of pictures header
    Размер потока : 959 Мбайт (90%)
    Default : Да
    Forced : Нет
    Аудио
    Идентификатор : 2
    Формат : MPEG Audio
    Версия формата : Version 1
    Профиль формата : Layer 2
    Идентификатор кодека : A_MPEG/L2
    Идентификатор кодека/Подсказка : MP2
    Продолжительность : 1 ч. 1 м.
    Вид битрейта : Постоянный
    Битрейт : 192 Кбит/сек
    Каналы : 2 канала
    Частота : 48,0 КГц
    Метод сжатия : С потерями
    Задержка видео : -1 м. 5 с.
    Размер потока : 85,0 Мбайт (8%)
    Язык : Russian
    Default : Да
    Forced : Нет
    Общее
    Уникальный идентификатор : 53237133917837967021265103543416781459 (0x280D195A75F4C691F95469CCFCA1FA93)
    Полное имя : D:\MPG\ДЫМ\ДЫМ 3 (inteRTV Nashe Kino).mkv
    Формат : Matroska
    Версия формата : Version 2
    Размер файла : 983 Мбайт
    Продолжительность : 1 ч. 3 м.
    Режим общего битрейта : Переменный
    Общий поток : 2170 Кбит/сек
    Программа кодирования : Lavf52.64.2
    Библиотека кодирования : Lavf52.64.2
    Видео
    Идентификатор : 1
    Формат : MPEG Video
    Версия формата : Version 2
    Профиль формата : Main@Main
    Параметр BVOP формата : Нет
    Параметр матрицы формата : Выборочная
    Идентификатор кодека : V_MPEG2
    Идентификатор кодека/Информация : MPEG 1 or 2 Video
    Продолжительность : 1 ч. 3 м.
    Вид битрейта : Переменный
    Битрейт : 1935 Кбит/сек
    Максимальный битрейт : 15,0 Мбит/сек
    Ширина : 704 пикселя
    Высота : 576 пикселей
    Соотношение сторон : 4:3
    Соотношение сторон в оригинале : 4:3
    Режим частоты кадров : Постоянный
    Частота кадров : 25,000 кадров/сек
    Стандарт вещания : PAL
    Цветовое пространство : YUV
    Субдискретизация насыщенности : 4:2:0
    Битовая глубина : 8 бит
    Тип развёртки : Чересстрочная
    Порядок развёртки : Верхнее поле первое
    Метод сжатия : С потерями
    Бит/(Пиксели*Кадры) : 0.191
    Временной код первого кадра : 00:00:00:00
    Оригинал временного кода : Group of pictures header
    Размер потока : 876 Мбайт (89%)
    Default : Да
    Forced : Нет
    Аудио
    Идентификатор : 2
    Формат : MPEG Audio
    Версия формата : Version 1
    Профиль формата : Layer 2
    Идентификатор кодека : A_MPEG/L2
    Идентификатор кодека/Подсказка : MP2
    Продолжительность : 1 ч. 3 м.
    Вид битрейта : Постоянный
    Битрейт : 192 Кбит/сек
    Каналы : 2 канала
    Частота : 48,0 КГц
    Метод сжатия : С потерями
    Задержка видео : -1 м. 5 с.
    Размер потока : 87,0 Мбайт (9%)
    Язык : Russian
    Default : Да
    Forced : Нет

    Скриншот c названием фильма

    Скриншоты

    Скачать .torrent

    Скачать торрент-файл бесплатно и на максимальной скорости!

    Как скачивать? · Что такое торрент? · Рейтинг и ограничения

    !ВНИМАНИЕ!
    Сайт не распространяет и не хранит электронные версии произведений, а занимается лишь лишь предоставлением доступа к создаваемому пользователями каталогу ссылок на торрент-файлы, которые содержат только списки хеш-сумм, убедительная просьба с жалобами обращаться напрямую к пользователю. Файлы для обмена на трекере предоставлены пользователями сайта, и администрация не несёт ответственности за их содержание. Просьба не заливать файлы, защищенные авторскими правами, а также файлы нелегального содержания!


    _________________
    [Профиль] [ЛС]
    Показать сообщения:    
    Ответить на тему

    Текущее время: Сегодня, в 22:25

    Часовой пояс: GMT + 2



    Вы не можете начинать темы
    Вы не можете отвечать на сообщения
    Вы не можете редактировать свои сообщения
    Вы не можете удалять свои сообщения
    Вы не можете голосовать в опросах
    Вы не можете прикреплять файлы к сообщениям
    Вы не можете скачивать файлы