BitTorrentTracker PerecTracker.org
BitTorrentTracker PerecTracker.org
    
Регистрация  ·  Вход
 
 · 
Забыли пароль?

  • Субура / Suburra (Стефано Соллима / Stefano Sollima ) [2015, Италия, Франция, Триллер, драма, криминал, BDRip, HD (720p)] + sub (rus, eng, ita)

    Ответить на тему
     
    Автор Сообщение

    Flirldrerve

    Создавать темы 12-Мар-2016 17:24

           

    [Цитировать]

    Субура / Suburra
    -
    6.650 / 10 7.50 / 10
    -Год выпуска: 2015
    Страна: Италия, Франция
    Жанр: Триллер, драма, криминал
    Продолжительность: 02:15:07
    Перевод 1: Одноголосый закадровый (А. Матвеев)
    Перевод 2: Одноголосый закадровый (А. Матвеев без цензуры)
    Перевод 3: Любительский (двухголосый закадровый) (den904 & DeadSno)
    Оригинальная аудиодорожка: Есть
    Cубтитры: Русские без цензуры, Русские , Английские, Итальянские
    Режиссёр: Стефано Соллима
    Сценарий: Джанкарло Де Катальдо, Carlo Bonini, Сандро Петралья
    Продюсер: Марко Кименц, Джина Гардини, Джованни Стабилини
    Оператор: Паоло Карнера
    Композитор: Паскуале Каталано
    Художник: Паки Медури, Вероника Фрагола
    Монтаж: Патрицио Мароне
    В ролях: Грета Скарано, Пьерфранческо Фавино, Жан-Юг Англад, Элио Джермано, Лидия Витале, Джулия Гориетти, Алессандро Борги, Клаудио Амендола, Юлия Коломиец, Светлана Кевраль
    Бюджет: €7 000 000
    Мировая премьера: 14 октября 2015
    Описание: Субура — известный в античности, как опасный, шумный, сырой и грязный, с множеством торговцев и проституток, район Древнего Рима. И спустя несколько тысячелетий среди великолепного городского пейзажа Рима разыгрываются отвратительные сцены из спектакля под названием жизнь. Гангстер по прозвищу Самурай хочет превратить пригород Рима в новый Лас-Вегас. Все местные криминальные авторитеты согласились работать для достижения общей цели. Но этот мир продлится недолго…-Качество исходника: BDRemux (HDClub)
    Качество: BDRip
    Тип: HD (720p)
    Контейнер: M4V
    Видео: H.264, 1280x544, 2.35:1, 3 500 Kbps, 23.976 (24000/1001) fps
    Аудио 1: Русский/Одноголосый закадровый (А. Матвеев), AAC / 2.0 / 158 Kbps / 48.0 KHz
    Аудио 2: Русский/Одноголосый закадровый (А. Матвеев без цензуры), AAC / 2.0 / 158 Kbps / 48.0 KHz
    Аудио 3: Русский/Любительский (двухголосый закадровый) (den904 & DeadSno), AAC / 2.0 / 156 Kbps / 48.0 KHz
    Аудио 4: Итальянский/Оригинальная дорожка , AAC / 2.0 / 158 Kbps / 48.0 KHz
    Аудио 5: Русский/Одноголосый закадровый (А. Матвеев), AC-3 / 5.1 / 640 Kbps / 48.0 KHz
    Аудио 6: Русский/Одноголосый закадровый (А. Матвеев без цензуры), AC-3 / 5.1 / 640 Kbps / 48.0 KHz
    Аудио 7: Русский/Любительский (двухголосый закадровый) (den904 & DeadSno), AC-3 / 5.1 / 384 Kbps / 48.0 KHz
    Аудио 8: Итальянский/Оригинальная дорожка , AC-3 / 5.1 / 640 Kbps / 48.0 KHz
    Субтитры 1: Русские без цензуры полные
    Субтитры 2: Русские полные
    Субтитры 3: Английские полные
    Субтитры 4: Итальянские полные
    -

    iTunes Meta Tags

    Sort Name: Suburra
    XID: Apple:vendor_id:2015-875939
    contentID: 1045455279
    Screenwriters: Джанкарло Де Катальдо, Carlo Bonini, Сандро Петралья
    Producers: Марко Кименц, Джина Гардини, Джованни Стабилини
    Director: Стефано Соллима
    Cast: Грета Скарано, Пьерфранческо Фавино, Жан-Юг Англад, Элио Джермано, Лидия Витале, Джулия Гориетти, Алессандро Борги, Клаудио Амендола, Юлия Коломиец, Светлана Кевраль
    Studio: Rai Cinema
    Rating: 66
    Long Description: Субура - известный в античности, как опасный, шумный, сырой и грязный, с множеством торговцев и проституток, район Древнего Рима. И спустя несколько тысячелетий среди великолепного городского пейзажа Рима разыгрываются отвратительные сцены из спектакля под названием жизнь. Гангстер по прозвищу Самурай хочет превратить пригород Рима в новый Лас-Вегас. Все местные криминальные авторитеты согласились работать для достижения общей цели. Но этот мир продлится недолго...
    Description: Субура - известный в античности, как опасный, шумный, сырой и грязный, с множеством торговцев и проституток, район Древнего Рима. И спустя несколько тысячелетий среди великолепного городского пейзажа Рима разыгрываются отвратительные сцены из спектакля под названием жизнь. Гангстер по прозвищу Самурай хочет превратить пригород Рима в новый Лас-Вегас. Все местные криминальные авторитеты согласились работать для достижения общей цели. Но этот мир продлится недолго...
    Release Date: 2015-10-14T08:00:00Z
    Genre: Drammatico
    Artist: Stefano Sollima
    Name: Suburra

    MediaInfo

    General
    Complete name : /Users/imac/HandBrake/Suburra (720p HD).m4v
    Format : MPEG-4
    Codec ID : M4V  (M4V /M4A /mp42/isom)
    File size : 6.07 GiB
    Duration : 2h 15mn
    Overall bit rate mode : Variable
    Overall bit rate : 6 431 Kbps
    Movie name : Suburra
    Performer : Stefano Sollima
    Director : Стефано Соллима
    Actor : Грета Скарано / Пьерфранческо Фавино / Жан-Юг Англад / Элио Джермано / Лидия Витале / Джулия Гориетти / Алессандро Борги / Клаудио Амендола / Юлия Коломиец / Светлана Кевраль
    Screenplay by : Джанкарло Де Катальдо / Carlo Bonini / Сандро Петралья
    Producer : Марко Кименц / Джина Гардини / Джованни Стабилини
    Production studio : Rai Cinema
    Genre : Drammatico
    ContentType : Short Film
    Description : Субура - известный в античности, как опасный, шумный, сырой и грязный, с множеством торговцев и проституток, район Древнего Рима. И спустя несколько тысячелетий среди великолепного городского пейзажа Рима разыгрываются отвратительные сцены из спектакля под названием жизнь. Гангстер по прозвищу Самурай хочет превратить пригород Рима в новый Лас-Вегас. Все местные криминальные авторитеты согласились работать для достижения общей цели. Но этот мир продлится недолго...
    Recorded date : UTC 2015-10-14 08:00:00
    Encoded date : UTC 2016-03-12 10:45:12
    Tagged date : UTC 2016-03-12 10:47:00
    Cover : Yes
    Rating : None
    Title/Sort : Suburra
    LongDescription : Субура - известный в античности, как опасный, шумный, сырой и грязный, с множеством торговцев и проституток, район Древнего Рима. И спустя несколько тысячелетий среди великолепного городского пейзажа Рима разыгрываются отвратительные сцены из спектакля под названием жизнь. Гангстер по прозвищу Самурай хочет превратить пригород Рима в новый Лас-Вегас. Все местные криминальные авторитеты согласились работать для достижения общей цели. Но этот мир продлится недолго...
    HDVideo : Yes
    AppleStoreCatalogID : 1045455279
    Vendor : Apple:vendor_id:2015-875939
    ContentRating : it-movie|T|100|
    Video #1
    ID : 1
    Format : AVC
    Format/Info : Advanced Video Codec
    Format profile : High@L3.1
    Format settings, CABAC : No
    Format settings, ReFrames : 3 frames
    Codec ID : avc1
    Codec ID/Info : Advanced Video Coding
    Duration : 2h 15mn
    Source duration : 2h 15mn
    Bit rate : 3 500 Kbps
    Width : 1 280 pixels
    Height : 544 pixels
    Display aspect ratio : 2.35:1
    Frame rate mode : Variable
    Frame rate : 23.976 (24000/1001) fps
    Minimum frame rate : 23.974 fps
    Maximum frame rate : 23.981 fps
    Color space : YUV
    Chroma subsampling : 4:2:0
    Bit depth : 8 bits
    Scan type : Progressive
    Bits/(Pixel*Frame) : 0.210
    Stream size : 3.29 GiB (54%)
    Source stream size : 3.29 GiB (54%)
    Title : Main Program
    Writing library : x264 core 142 r2479 dd79a61
    Encoding settings : cabac=0 / ref=3 / deblock=1:-3:-3 / analyse=0x3:0x113 / me=umh / subme=9 / psy=1 / psy_rd=1.00:0.15 / mixed_ref=1 / me_range=32 / chroma_me=1 / trellis=0 / 8x8dct=1 / cqm=0 / deadzone=21,11 / fast_pskip=0 / chroma_qp_offset=-2 / threads=36 / lookahead_threads=3 / sliced_threads=0 / nr=0 / decimate=0 / interlaced=0 / bluray_compat=0 / constrained_intra=0 / bframes=3 / b_pyramid=0 / b_adapt=2 / b_bias=0 / direct=1 / weightb=0 / open_gop=0 / weightp=0 / keyint=240 / keyint_min=24 / scenecut=40 / intra_refresh=0 / rc_lookahead=40 / rc=2pass / mbtree=1 / bitrate=3500 / ratetol=1.0 / qcomp=0.65 / qpmin=0 / qpmax=69 / qpstep=4 / cplxblur=20.0 / qblur=0.5 / vbv_maxrate=9500 / vbv_bufsize=9500 / nal_hrd=none / filler=0 / ip_ratio=1.40 / aq=1:1.10
    Language : Italian
    Encoded date : UTC 2016-03-12 10:45:12
    Tagged date : UTC 2016-03-12 10:45:18
    Color range : Limited
    Color primaries : BT.709
    Transfer characteristics : BT.709
    Matrix coefficients : BT.709
    Menus : 14,15
    Video #2
    ID : 15
    Format : JPEG
    Codec ID : jpeg
    Duration : 2h 15mn
    Bit rate mode : Variable
    Bit rate : 241 bps
    Width : 640 pixels
    Height : 272 pixels
    Display aspect ratio : 2.35:1
    Frame rate mode : Variable
    Frame rate : 0.001 fps
    Minimum frame rate : 0.001 fps
    Maximum frame rate : 0.003 fps
    Color space : YUV
    Chroma subsampling : 4:2:0
    Bit depth : 8 bits
    Compression mode : Lossy
    Bits/(Pixel*Frame) : 1.384
    Stream size : 353 KiB (0%)
    Language : Italian
    Default : No
    Encoded date : UTC 2016-03-12 10:46:27
    Tagged date : UTC 2016-03-12 10:46:27
    Menu For : 1
    Audio #1
    ID : 2
    Format : AAC
    Format/Info : Advanced Audio Codec
    Format profile : LC
    Codec ID : 40
    Duration : 2h 15mn
    Bit rate mode : Variable
    Bit rate : 158 Kbps
    Maximum bit rate : 251 Kbps
    Channel(s) : 2 channels
    Channel positions : Front: L R
    Sampling rate : 48.0 KHz
    Frame rate : 46.875 fps (1024 spf)
    Compression mode : Lossy
    Stream size : 153 MiB (2%)
    Title : AVO Matveev Stereo
    Language : Russian
    Default : Yes
    Alternate group : 1
    Encoded date : UTC 2016-03-12 10:45:13
    Tagged date : UTC 2016-03-12 10:46:24
    Fallback From : 6
    Audio #2
    ID : 3
    Format : AAC
    Format/Info : Advanced Audio Codec
    Format profile : LC
    Codec ID : 40
    Duration : 2h 15mn
    Bit rate mode : Variable
    Bit rate : 158 Kbps
    Maximum bit rate : 251 Kbps
    Channel(s) : 2 channels
    Channel positions : Front: L R
    Sampling rate : 48.0 KHz
    Frame rate : 46.875 fps (1024 spf)
    Compression mode : Lossy
    Stream size : 153 MiB (2%)
    Title : AVO Matveev Uncensored Stereo
    Language : Russian
    Default : No
    Alternate group : 1
    Encoded date : UTC 2016-03-12 10:45:13
    Tagged date : UTC 2016-03-12 10:46:24
    Fallback From : 7
    Audio #3
    ID : 4
    Format : AAC
    Format/Info : Advanced Audio Codec
    Format profile : LC
    Codec ID : 40
    Duration : 2h 15mn
    Bit rate mode : Variable
    Bit rate : 156 Kbps
    Maximum bit rate : 249 Kbps
    Channel(s) : 2 channels
    Channel positions : Front: L R
    Sampling rate : 48.0 KHz
    Frame rate : 46.875 fps (1024 spf)
    Compression mode : Lossy
    Stream size : 151 MiB (2%)
    Title : DVO den904 & DeadSno Stereo
    Language : Russian
    Default : No
    Alternate group : 1
    Encoded date : UTC 2016-03-12 10:45:13
    Tagged date : UTC 2016-03-12 10:46:24
    Fallback From : 8
    Audio #4
    ID : 5
    Format : AAC
    Format/Info : Advanced Audio Codec
    Format profile : LC
    Codec ID : 40
    Duration : 2h 15mn
    Bit rate mode : Variable
    Bit rate : 158 Kbps
    Maximum bit rate : 245 Kbps
    Channel(s) : 2 channels
    Channel positions : Front: L R
    Sampling rate : 48.0 KHz
    Frame rate : 46.875 fps (1024 spf)
    Compression mode : Lossy
    Stream size : 153 MiB (2%)
    Title : Italian Stereo
    Language : Italian
    Default : No
    Alternate group : 1
    Encoded date : UTC 2016-03-12 10:45:13
    Tagged date : UTC 2016-03-12 10:46:24
    Fallback From : 9
    Audio #5
    ID : 6
    Format : AC-3
    Format/Info : Audio Coding 3
    Mode extension : CM (complete main)
    Format settings, Endianness : Big
    Codec ID : ac-3
    Duration : 2h 15mn
    Bit rate mode : Constant
    Bit rate : 640 Kbps
    Channel(s) : 6 channels
    Channel positions : Front: L C R, Side: L R, LFE
    Sampling rate : 48.0 KHz
    Frame rate : 31.250 fps (1536 spf)
    Bit depth : 16 bits
    Compression mode : Lossy
    Stream size : 619 MiB (10%)
    Title : AVO Matveev  DD 5.1
    Language : Russian
    Default : Inherited From: 2
    Alternate group : 1
    Encoded date : UTC 2016-03-12 10:45:13
    Tagged date : UTC 2016-03-12 10:46:24
    Fallback To : 2
    Audio #6
    ID : 7
    Format : AC-3
    Format/Info : Audio Coding 3
    Mode extension : CM (complete main)
    Format settings, Endianness : Big
    Codec ID : ac-3
    Duration : 2h 15mn
    Bit rate mode : Constant
    Bit rate : 640 Kbps
    Channel(s) : 6 channels
    Channel positions : Front: L C R, Side: L R, LFE
    Sampling rate : 48.0 KHz
    Frame rate : 31.250 fps (1536 spf)
    Bit depth : 16 bits
    Compression mode : Lossy
    Stream size : 619 MiB (10%)
    Title : AVO Matveev Uncensored DD 5.1
    Language : Russian
    Default : No
    Alternate group : 1
    Encoded date : UTC 2016-03-12 10:45:13
    Tagged date : UTC 2016-03-12 10:46:24
    Fallback To : 3
    Audio #7
    ID : 8
    Format : AC-3
    Format/Info : Audio Coding 3
    Mode extension : CM (complete main)
    Format settings, Endianness : Big
    Codec ID : ac-3
    Duration : 2h 15mn
    Bit rate mode : Constant
    Bit rate : 384 Kbps
    Channel(s) : 6 channels
    Channel positions : Front: L C R, Side: L R, LFE
    Sampling rate : 48.0 KHz
    Frame rate : 31.250 fps (1536 spf)
    Bit depth : 16 bits
    Compression mode : Lossy
    Stream size : 371 MiB (6%)
    Title : DVO den904 & DeadSno DD 5.1
    Language : Russian
    Default : No
    Alternate group : 1
    Encoded date : UTC 2016-03-12 10:45:13
    Tagged date : UTC 2016-03-12 10:46:24
    Fallback To : 4
    Audio #8
    ID : 9
    Format : AC-3
    Format/Info : Audio Coding 3
    Mode extension : CM (complete main)
    Format settings, Endianness : Big
    Codec ID : ac-3
    Duration : 2h 15mn
    Bit rate mode : Constant
    Bit rate : 640 Kbps
    Channel(s) : 6 channels
    Channel positions : Front: L C R, Side: L R, LFE
    Sampling rate : 48.0 KHz
    Frame rate : 31.250 fps (1536 spf)
    Bit depth : 16 bits
    Compression mode : Lossy
    Stream size : 619 MiB (10%)
    Title : Italian DD 5.1
    Language : Italian
    Default : No
    Alternate group : 1
    Encoded date : UTC 2016-03-12 10:45:13
    Tagged date : UTC 2016-03-12 10:46:24
    Fallback To : 5
    Text #1
    ID : 10
    Format : Timed Text
    Muxing mode : sbtl
    Codec ID : tx3g
    Duration : 2h 10mn
    Bit rate mode : Variable
    Bit rate : 59 bps
    Stream size : 55.8 KiB (0%)
    Title : Russian Uncensored full
    Language : Russian
    Default : Yes
    Forced : No
    Alternate group : 2
    Encoded date : UTC 2016-03-12 10:45:13
    Tagged date : UTC 2016-03-12 10:46:20
    Text #2
    ID : 11
    Format : Timed Text
    Muxing mode : sbtl
    Codec ID : tx3g
    Duration : 2h 10mn
    Bit rate mode : Variable
    Bit rate : 59 bps
    Stream size : 55.8 KiB (0%)
    Title : Russian full
    Language : Russian
    Default : No
    Forced : No
    Alternate group : 2
    Encoded date : UTC 2016-03-12 10:45:13
    Tagged date : UTC 2016-03-12 10:46:20
    Text #3
    ID : 12
    Format : Timed Text
    Muxing mode : sbtl
    Codec ID : tx3g
    Duration : 2h 10mn
    Bit rate mode : Variable
    Bit rate : 37 bps
    Stream size : 34.9 KiB (0%)
    Title : English full
    Language : English
    Default : No
    Forced : No
    Alternate group : 2
    Encoded date : UTC 2016-03-12 10:45:13
    Tagged date : UTC 2016-03-12 10:46:19
    Text #4
    ID : 13
    Format : Timed Text
    Muxing mode : sbtl
    Codec ID : tx3g
    Duration : 2h 6mn
    Bit rate mode : Variable
    Bit rate : 41 bps
    Stream size : 38.1 KiB (0%)
    Title : Italian full
    Language : Italian
    Default : No
    Forced : No
    Alternate group : 2
    Encoded date : UTC 2016-03-12 10:45:13
    Tagged date : UTC 2016-03-12 10:46:19
    Menu #1
    00:00:00.000 : Chapter 1
    00:11:42.327 : Chapter 2
    00:21:45.846 : Chapter 3
    00:33:09.779 : Chapter 4
    00:48:19.396 : Chapter 5
    01:04:13.683 : Chapter 6
    01:09:58.111 : Chapter 7
    01:21:51.698 : Chapter 8
    01:30:15.744 : Chapter 9
    01:40:36.155 : Chapter 10
    01:46:11.156 : Chapter 11
    01:59:20.487 : Chapter 12
    Menu #2
    ID : 14
    Codec ID : text
    Duration : 2h 15mn
    Title : Chapter Images
    Language : Italian
    Encoded date : UTC 2016-03-12 10:46:24
    Tagged date : UTC 2016-03-12 10:46:24
    Menu For : 1
    00:00:00.000 : Chapter 1
    00:11:42.327 : Chapter 2
    00:21:45.846 : Chapter 3
    00:33:09.779 : Chapter 4
    00:48:19.396 : Chapter 5
    01:04:13.683 : Chapter 6
    01:09:58.111 : Chapter 7
    01:21:51.698 : Chapter 8
    01:30:15.744 : Chapter 9
    01:40:36.155 : Chapter 10
    01:46:11.156 : Chapter 11
    01:59:20.487 : Chapter 12
    Bit rate mode : VBR

    x264 лог

    x264 [info]: frame I:1327  Avg QP:15.64  size: 91878
    x264 [info]: frame P:72405 Avg QP:17.86  size: 30948
    x264 [info]: frame B:120640 Avg QP:19.42  size:  9673
    x264 [info]: consecutive B-frames:  5.4% 17.0% 55.8% 21.9%
    x264 [info]: mb I  I16..4:  7.6% 55.8% 36.6%
    x264 [info]: mb P  I16..4:  1.4%  4.8%  2.4%  P16..4: 49.4% 25.9% 11.2%  0.0%  0.0%    skip: 4.8%
    x264 [info]: mb B  I16..4:  0.2%  0.7%  0.5%  B16..8: 49.2% 11.9%  1.9%  direct: 4.0%  skip:31.6%  L0:41.4% L1:51.5% BI: 7.1%
    x264 [info]: 8x8 transform intra:54.5% inter:44.6%
    x264 [info]: coded y,uvDC,uvAC intra: 83.7% 74.7% 45.3% inter: 27.7% 16.7% 6.3%
    x264 [info]: i16 v,h,dc,p: 57%  9%  6% 28%
    x264 [info]: i8 v,h,dc,ddl,ddr,vr,hd,vl,hu: 10%  7%  5% 11% 16% 16% 14% 12% 10%
    x264 [info]: i4 v,h,dc,ddl,ddr,vr,hd,vl,hu: 12%  8%  3% 12% 16% 17% 13% 11%  9%
    x264 [info]: i8c dc,h,v,p: 48% 18% 23% 11%
    x264 [info]: ref P L0: 70.0% 17.6% 12.4%
    x264 [info]: ref B L0: 78.6% 21.4%
    x264 [info]: kb/s:3483.13

    Скриншоты

    -

    Релиз подготовлен для просмотра на Apple TV, iPad, iPhone, iPod Touch.
    Для просмотра данного релиза на компьютере с ОС Windows рекомендуется использовать VLC media player
    Скачать .torrent

    Скачать торрент-файл бесплатно и на максимальной скорости!

    Как скачивать? · Что такое торрент? · Рейтинг и ограничения

    !ВНИМАНИЕ!
    Сайт не распространяет и не хранит электронные версии произведений, а занимается лишь лишь предоставлением доступа к создаваемому пользователями каталогу ссылок на торрент-файлы, которые содержат только списки хеш-сумм, убедительная просьба с жалобами обращаться напрямую к пользователю. Файлы для обмена на трекере предоставлены пользователями сайта, и администрация не несёт ответственности за их содержание. Просьба не заливать файлы, защищенные авторскими правами, а также файлы нелегального содержания!


    _________________
    [Профиль] [ЛС]
    Показать сообщения:    
    Ответить на тему

    Текущее время: Сегодня, в 00:11

    Часовой пояс: GMT + 2



    Вы не можете начинать темы
    Вы не можете отвечать на сообщения
    Вы не можете редактировать свои сообщения
    Вы не можете удалять свои сообщения
    Вы не можете голосовать в опросах
    Вы не можете прикреплять файлы к сообщениям
    Вы не можете скачивать файлы