BitTorrentTracker PerecTracker.org
BitTorrentTracker PerecTracker.org
    
Регистрация  ·  Вход
 
 · 
Забыли пароль?

  • Волшебная шапочка / Sehrli Qalpoqcha / Сеҳрли қалпоқча (Сарвар Каримов, Назим Джумаев) [2012, Узбекистан, сказка, фэнтези, семейный, WEB-DLRip] MVO

    Ответить на тему
     
    Автор Сообщение

    rechyn

    Создавать темы 12-Мар-2016 13:12

           

    [Цитировать]

    Волшебная шапочка / Sehrli Qalpoqcha / Сеҳрли қалпоқча

    Страна: Узбекистан
    Жанр: сказка, фэнтези, семейный
    Год выпуска: 2012
    Продолжительность: 01:23:47
    Перевод: Профессиональный (многоголосый закадровый)
    Cубтитры: нет
    Оригинальная аудиодорожка: нет
    Режиссер: Сарвар Каримов, Назим Джумаев
    В ролях: Бунёд Рахматуллаев, Бахтиёр Тургунов, Умид Хамдамов, Фатхулло Максудов, Фатима Реджаметова, Тахир Саидов, Дильбар Икрамова, Хамид Ташпулатов, Тухтамурад Азизов, Юлдуз Хамидова, Отабек Хакбердыев, Гульхумар Абдуллаева, Мукаррам Бекмурадова
    Описание: История о Хашиме, который, как это часто бывает с мальчишками, попадает в различные неприятности...
    Сэмпл: https://yadi.sk/d/UJh8ZtU-q4qET
    Качество видео: WEB-DLRip
    Формат видео: MKV
    Видео: AVC, 1024x464, 2.2:1, 1678 kbps, 25.000 fps
    Аудио: RUS, AC3, 2.0, 48 kHz, 192 kbps

    MediaInfo

    General
    Unique ID : 183315781658110349696135491255463242348 (0x89E955D75CA0CB58BD3D33CE8E0EEA6C)
    Complete name : Волшебная шапочка [2012].mkv
    Format : Matroska
    Format version : Version 4 / Version 2
    File size : 1.10 GiB
    Duration : 1h 23mn
    Overall bit rate : 1 871 Kbps
    Encoded date : UTC 2016-03-10 16:07:36
    Writing application : mkvmerge v8.3.0 ('Over the Horizon') 32bit
    Writing library : libebml v1.3.1 + libmatroska v1.4.2
    Video
    ID : 1
    Format : AVC
    Format/Info : Advanced Video Codec
    Format profile : High@L4.1
    Format settings, CABAC : Yes
    Format settings, ReFrames : 16 frames
    Codec ID : V_MPEG4/ISO/AVC
    Duration : 1h 23mn
    Bit rate : 1 678 Kbps
    Width : 1 024 pixels
    Height : 464 pixels
    Display aspect ratio : 2.2:1
    Frame rate mode : Constant
    Frame rate : 25.000 fps
    Color space : YUV
    Chroma subsampling : 4:2:0
    Bit depth : 8 bits
    Scan type : Progressive
    Bits/(Pixel*Frame) : 0.141
    Stream size : 984 MiB (88%)
    Writing library : x264 core 146 r2538bm 121396c
    Encoding settings : cabac=1 / ref=16 / deblock=1:-1:-1 / analyse=0x3:0x133 / me=umh / subme=10 / psy=1 / psy_rd=1.00:0.15 / mixed_ref=1 / me_range=24 / chroma_me=1 / trellis=2 / 8x8dct=1 / cqm=0 / deadzone=21,11 / fast_pskip=1 / chroma_qp_offset=-3 / threads=12 / lookahead_threads=2 / sliced_threads=0 / nr=0 / decimate=1 / interlaced=0 / bluray_compat=0 / constrained_intra=0 / bframes=8 / b_pyramid=2 / b_adapt=2 / b_bias=0 / direct=3 / weightb=1 / open_gop=0 / weightp=2 / keyint=250 / keyint_min=25 / scenecut=40 / intra_refresh=0 / rc_lookahead=60 / rc=2pass / mbtree=1 / bitrate=1678 / ratetol=1.0 / qcomp=0.60 / qpmin=0 / qpmax=69 / qpstep=4 / cplxblur=20.0 / qblur=0.5 / ip_ratio=1.40 / aq=1:1.00
    Language : Uzbek
    Default : Yes
    Forced : No
    Audio
    ID : 2
    Format : AC-3
    Format/Info : Audio Coding 3
    Mode extension : CM (complete main)
    Format settings, Endianness : Big
    Codec ID : A_AC3
    Duration : 1h 23mn
    Bit rate mode : Constant
    Bit rate : 192 Kbps
    Channel(s) : 2 channels
    Channel positions : Front: L R
    Sampling rate : 44.1 KHz
    Compression mode : Lossy
    Stream size : 115 MiB (10%)
    Language : Russian
    Default : Yes
    Forced : No

    Скриншоты

    Скачать .torrent

    Скачать торрент-файл бесплатно и на максимальной скорости!

    Как скачивать? · Что такое торрент? · Рейтинг и ограничения

    !ВНИМАНИЕ!
    Сайт не распространяет и не хранит электронные версии произведений, а занимается лишь лишь предоставлением доступа к создаваемому пользователями каталогу ссылок на торрент-файлы, которые содержат только списки хеш-сумм, убедительная просьба с жалобами обращаться напрямую к пользователю. Файлы для обмена на трекере предоставлены пользователями сайта, и администрация не несёт ответственности за их содержание. Просьба не заливать файлы, защищенные авторскими правами, а также файлы нелегального содержания!


    _________________
    [Профиль] [ЛС]
    Показать сообщения:    
    Ответить на тему

    Текущее время: Сегодня, в 10:05

    Часовой пояс: GMT + 2



    Вы не можете начинать темы
    Вы не можете отвечать на сообщения
    Вы не можете редактировать свои сообщения
    Вы не можете удалять свои сообщения
    Вы не можете голосовать в опросах
    Вы не можете прикреплять файлы к сообщениям
    Вы не можете скачивать файлы