BitTorrentTracker PerecTracker.org
BitTorrentTracker PerecTracker.org
    
Регистрация  ·  Вход
 
 · 
Забыли пароль?

  • И это моя семья! / A gert lush Christmas (Эл Кемпбелл / Al Campbell) [2015, Великобритания, комедия, HDTVRip-AVC] VO (LetEatBee)

    Ответить на тему
     
    Автор Сообщение

    rechyn

    Создавать темы 12-Мар-2016 13:12

           

    [Цитировать]

    И это моя семья! / A gert lush Christmas
    Страна: Великобритания
    Жанр: комедия
    Год выпуска: 2015
    Продолжительность: 00:59:03
    Перевод: Одноголосый закадровый LetEatBee по оригинальным субтитрам Михаила Васильева
    Cубтитры: нет
    Режиссер: Эл Кемпбелл / Al Campbell
    В ролях: Рассел Ховард, Ханна Бритланд, Софи Томсон, Нил Морриси, Мэгги О Нилл
    Описание: Лиза очень ждет выходных, чтобы поехать в Бристоль и познакомиться с семьей своего парня Дэна. Она даже не представляет, с чем столкнется. Ведь у Дэна хиппующие родители, сумасшедший брат, взбалмошная сестра, злоупотребляющий запрещенными препаратами дядя, а лучший друг детства — режиссер порно.
    Доп. информация: Телевизионный фильм канала BBC.
    Эфир: 26 декабря 2015

    Возрастное ограничение
    : 18 +
    Фильм изобилует грубыми, безумными шутками, не имеющими ничего общего с «тонким английским юмором», но фильм оставляет приятное послевкусие, потому что герои, хоть и со странностями, однако, очень милые.
    Сэмпл: https://yadi.sk/d/duRb1vWxq5kkR
    IMDB
    КИНОПОИСК
    Качество видео: HDTVRip-AVC
    Формат видео: MKV
    Видео: 1406 Kbps, 720x404 (16:9), 25 000 fps, AVC
    Аудио: 192 Kbps, 44.0 KHz, 2 ch, mp3

    MediaInfo

    Format : Matroska
    Format version : Version 4 / Version 2
    File size : 670 MiB
    Duration : 59mn 3s
    Overall bit rate : 1 585 Kbps
    Encoded date : UTC 2016-03-11 12:59:21
    Writing application : mkvmerge v8.2.0 ('World of Adventure') 64bit
    Writing library : libebml v1.3.1 + libmatroska v1.4.2
    DURATION : 00:59:03.144000000
    NUMBER_OF_FRAMES : 135636
    NUMBER_OF_BYTES : 84908136
    _STATISTICS_WRITING_APP : mkvmerge v8.2.0 ('World of Adventure') 64bit
    _STATISTICS_WRITING_DATE_UT : 2016-03-11 12:59:21
    _STATISTICS_TAGS : BPS DURATION NUMBER_OF_FRAMES NUMBER_OF_BYTES
    Video
    ID : 1
    Format : AVC
    Format/Info : Advanced Video Codec
    Format profile : Main@L3
    Format settings, CABAC : Yes
    Format settings, ReFrames : 1 frame
    Codec ID : V_MPEG4/ISO/AVC
    Duration : 59mn 3s
    Bit rate : 1 406 Kbps
    Width : 720 pixels
    Height : 404 pixels
    Display aspect ratio : 16:9
    Frame rate mode : Constant
    Frame rate : 25.000 fps
    Color space : YUV
    Chroma subsampling : 4:2:0
    Bit depth : 8 bits
    Scan type : Progressive
    Bits/(Pixel*Frame) : 0.193
    Stream size : 575 MiB (86%)
    Writing library : x264 core 129
    Encoding settings : cabac=1 / ref=1 / deblock=1:0:0 / analyse=0x1:0x131 / me=dia / subme=2 / psy=1 / psy_rd=1.00:0.00 / mixed_ref=0 / me_range=16 / chroma_me=1 / trellis=0 / 8x8dct=0 / cqm=0 / deadzone=21,11 / fast_pskip=1 / chroma_qp_offset=0 / threads=2 / lookahead_threads=1 / sliced_threads=0 / nr=0 / decimate=1 / interlaced=0 / bluray_compat=0 / constrained_intra=0 / bframes=0 / weightp=2 / keyint=250 / keyint_min=25 / scenecut=40 / intra_refresh=0 / rc_lookahead=40 / rc=abr / mbtree=1 / bitrate=1406 / ratetol=1.0 / qcomp=0.60 / qpmin=10 / qpmax=51 / qpstep=4 / ip_ratio=1.41 / aq=1:1.00
    Default : Yes
    Forced : No
    Audio
    ID : 2
    Format : MPEG Audio
    Format version : Version 1
    Format profile : Layer 3
    Mode : Joint stereo
    Mode extension : MS Stereo
    Codec ID : A_MPEG/L3
    Codec ID/Hint : MP3
    Duration : 59mn 3s
    Bit rate mode : Constant
    Bit rate : 192 Kbps
    Channel(s) : 2 channels
    Sampling rate : 44.1 KHz
    Compression mode : Lossy
    Stream size : 81.1 MiB (12%)
    Default : Yes
    Forced : No

    Скриншот с названием фильма

    [img][/img]

    Скриншоты

    Скачать .torrent

    Скачать торрент-файл бесплатно и на максимальной скорости!

    Как скачивать? · Что такое торрент? · Рейтинг и ограничения

    !ВНИМАНИЕ!
    Сайт не распространяет и не хранит электронные версии произведений, а занимается лишь лишь предоставлением доступа к создаваемому пользователями каталогу ссылок на торрент-файлы, которые содержат только списки хеш-сумм, убедительная просьба с жалобами обращаться напрямую к пользователю. Файлы для обмена на трекере предоставлены пользователями сайта, и администрация не несёт ответственности за их содержание. Просьба не заливать файлы, защищенные авторскими правами, а также файлы нелегального содержания!


    _________________
    [Профиль] [ЛС]
    Показать сообщения:    
    Ответить на тему

    Текущее время: Сегодня, в 07:58

    Часовой пояс: GMT + 2



    Вы не можете начинать темы
    Вы не можете отвечать на сообщения
    Вы не можете редактировать свои сообщения
    Вы не можете удалять свои сообщения
    Вы не можете голосовать в опросах
    Вы не можете прикреплять файлы к сообщениям
    Вы не можете скачивать файлы