Register  ·  Log in
Forgot password?

  • Сёстры / Sisters (Джейсон Мур / Jason Moore) [2015, США, Комедия, BDRip] Dub iTunes

    Reply to topic
    Author Message


    Post 12-Mar-2016 14:12



    Сёстры / Sisters
    Страна: США
    Жанр: Комедия
    Год выпуска: 2015
    Продолжительность: 01:57:49
    Перевод: Профессиональный (дублированный) iTunes
    Cубтитры: нет
    Режиссер: Джейсон Мур / Jason Moore
    В ролях: Эми Полер, Тина Фей, Майя Рудольф, Айк Баринхолц, Джеймс Бролин, Дайэнн Уист, Джон Сина, Джон Легуизамо, Бобби Мойнахан, Грета Ли
    Описание: Две сестры решают устроить одну последнюю вечеринку в их семейном доме, прежде чем родители продадут его.
    Качество видео: BDRip Blu-Ray (1080p)|kinozal
    Формат видео: AVI
    Видео: 720x304 (2.37:1), 23.976 fps, XviD build 73 ~1379 kbps avg, 0.26 bit/pixel
    Аудио: 48 kHz, AC3 Dolby Digital, 3/2 (L,C,R,l,r) + LFE ch, ~384 kbps


    Формат : AVI
    Формат/Информация : Audio Video Interleave
    Размер файла : 1,46 Гбайт
    Продолжительность : 1 ч. 57 м.
    Общий поток : 1773 Кбит/сек
    Программа кодирования : VirtualDubMod | || (build 2550/release)
    Библиотека кодирования : VirtualDubMod build 2550/release
    Идентификатор : 0
    Формат : MPEG-4 Visual
    Профиль формата : Advanced Simple@L5
    Параметр BVOP формата : 1
    Параметр QPel формата : Нет
    Параметр GMC формата : Без точки перехода
    Параметр матрицы формата : Выборочная
    Идентификатор кодека : XVID
    Идентификатор кодека/Подсказка : XviD
    Продолжительность : 1 ч. 57 м.
    Битрейт : 1380 Кбит/сек
    Ширина : 720 пикселей
    Высота : 304 пикселя
    Соотношение сторон : 2,35:1
    Частота кадров : 23,976 (23976/1000) кадра/сек
    Цветовое пространство : YUV
    Субдискретизация насыщенности : 4:2:0
    Битовая глубина : 8 бит
    Тип развёртки : Прогрессивная
    Метод сжатия : С потерями
    Бит/(Пиксели*Кадры) : 0.263
    Размер потока : 1,13 Гбайт (78%)
    Библиотека кодирования : XviD 73
    Идентификатор : 1
    Формат : AC-3
    Формат/Информация : Audio Coding 3
    Расширение режима : CM (complete main)
    Параметр Endianness формата : Big
    Идентификатор кодека : 2000
    Продолжительность : 1 ч. 57 м.
    Вид битрейта : Постоянный
    Битрейт : 384 Кбит/сек
    Каналы : 6 каналов
    Расположение каналов : Front: L C R, Side: L R, LFE
    Частота : 48,0 КГц
    Частота кадров : 31,250 кадров/сек (1536 spf)
    Метод сжатия : С потерями
    Размер потока : 323 Мбайт (22%)
    Выравнивание : Разделение по промежуткам
    Продолжительность промежутка : 42 мс. (1,00 видеокадр)
    Время предзагрузки промежутка : 500 мс.


    Download .torrent

    Download free and at maximum speed!

    How to Download? · What is a torrent? · Ratings and Limitations

    The site does not extend and does not store electronic(digital) versions of products, and only gives access to a reference catalogue created by users on torrent-files which contain only lists of the hash-sums, the earnest entreaty, with complaints(abuse) to access directly to the user. Files for an exchange on tracker are given by users of a site, and the administration does not bear the responsibility for their maintenance. The request to not fill in the files protected by copyrights, and also files of the illegal maintenance!

    [Profile] [PM]
    Display posts from previous:    
    Reply to topic

    The time now is: Today 23:26

    All times are GMT + 3 Hours

    You cannot post new topics in this forum
    You cannot reply to topics in this forum
    You cannot edit your posts in this forum
    You cannot delete your posts in this forum
    You cannot vote in polls in this forum
    You cannot attach files in this forum
    You cannot download files in this forum