BitTorrentTracker PerecTracker.org
BitTorrentTracker PerecTracker.org
    
Регистрация  ·  Вход
 
 · 
Забыли пароль?

  • Фонограмма страсти (Николай Лебедев) [2009, триллер, DVDRip]

    Ответить на тему
     
    Автор Сообщение

    rechyn

    Создавать темы 12-Мар-2016 00:37

           

    [Цитировать]

    Фонограмма страстиЖанр: триллер
    Год выпуска: 2009
    Продолжительность: 01:37:00
    Режиссёр: Николай Лебедев
    В ролях: Елена Николаева (озвучание - Светлана Иванова), Сергей Гармаш, Фабио Фулко, Нина Усатова, Анатолий Белый, Николай Мачульский, Ольга Литвинова, Светлана Тома, Александр Пахомов, Максим Воронков, Александр Бухаров, Сергей Беляев, Сергей Угрюмов, Александр Новин, Алексей Злобин, Алексей Кизенков, Нина Гребешкова, Сергей Брауде, Пётр Дранга, Валерий Громовиков, Ольга Хохлова, Ольга Сарычева, Алексей Королёв, Сергей Богородов, Николай Губенков, Тимур Ефременков, Дмитрий Смирнов, Максим Тиунов, Александр Филитов, Юлия Морозова, Юрий Соколов, Николай Евтушенко
    Описание: Девушка Вита из службы прослушивания частного сыскного агентства неожиданно для самой себя влюбляется в ослепительного красавца. Он ничего не знает о ней, а она - о нём. Но от безудержной страсти до самоотверженной любви всего один шаг. Этот шаг они делают вместе, когда Вита узнаёт от коллег, что прекрасный незнакомец — объект наблюдения её сыскного агентства.
    Доп. информация:

    Релиз:

    Сэмпл:

    Качество видео: DVDRip
    Формат видео: AVI
    Видео: 720x304 (2.37:1), 25 fps, XviD MPEG-4 ~1562 kbps avg, 0.28 bit/pixel
    Аудио: 48 kHz, AC3 Dolby Digital, 3/2 (L,C,R,l,r) + LFE ch, ~448 kbps

    MediaInfo

    Общее
    Полное имя : Fonogramma.strasti.2009.DVDRip.KinozalSAT.avi
    Формат : AVI
    Формат/Информация : Audio Video Interleave
    Размер файла : 1,37 Гбайт
    Продолжительность : 1 ч. 37 м.
    Общий поток : 2017 Кбит/сек
    Программа кодирования : VirtualDubMod 1.5.4.1 (build 2178/release)
    Библиотека кодирования : VirtualDubMod build 2178/release
    Видео
    Идентификатор : 0
    Формат : MPEG-4 Visual
    Профиль формата : Advanced Simple@L5
    Параметр BVOP формата : 1
    Параметр QPel формата : Нет
    Параметр GMC формата : Без точки перехода
    Параметр матрицы формата : Выборочная
    Идентификатор кодека : XVID
    Идентификатор кодека/Подсказка : XviD
    Продолжительность : 1 ч. 37 м.
    Битрейт : 1562 Кбит/сек
    Ширина : 720 пикселей
    Высота : 304 пикселя
    Соотношение сторон : 2,35:1
    Частота кадров : 25,000 кадров/сек
    Цветовое пространство : YUV
    Субдискретизация насыщенности : 4:2:0
    Битовая глубина : 8 бит
    Тип развёртки : Прогрессивная
    Метод сжатия : С потерями
    Бит/(Пиксели*Кадры) : 0.285
    Размер потока : 1,06 Гбайт (77%)
    Библиотека кодирования : XviD 1.2.1 (UTC 2008-12-04)
    Аудио
    Идентификатор : 1
    Формат : AC-3
    Формат/Информация : Audio Coding 3
    Расширение режима : CM (complete main)
    Параметр Endianness формата : Big
    Идентификатор кодека : 2000
    Продолжительность : 1 ч. 36 м.
    Вид битрейта : Постоянный
    Битрейт : 448 Кбит/сек
    Каналы : 6 каналов
    Расположение каналов : Front: L C R, Side: L R, LFE
    Частота : 48,0 КГц
    Частота кадров : 31,250 кадров/сек (1536 spf)
    Метод сжатия : С потерями
    Размер потока : 311 Мбайт (22%)
    Выравнивание : Разделение по промежуткам
    Продолжительность промежутка : 96 мс. (2,40 видеокадра)
    Время предзагрузки промежутка : 96 мс.
    Язык : Russian

    Скриншот c названием фильма

    Скриншоты

    Скачать .torrent

    Скачать торрент-файл бесплатно и на максимальной скорости!

    Как скачивать? · Что такое торрент? · Рейтинг и ограничения

    !ВНИМАНИЕ!
    Сайт не распространяет и не хранит электронные версии произведений, а занимается лишь лишь предоставлением доступа к создаваемому пользователями каталогу ссылок на торрент-файлы, которые содержат только списки хеш-сумм, убедительная просьба с жалобами обращаться напрямую к пользователю. Файлы для обмена на трекере предоставлены пользователями сайта, и администрация не несёт ответственности за их содержание. Просьба не заливать файлы, защищенные авторскими правами, а также файлы нелегального содержания!


    _________________
    [Профиль] [ЛС]
    Показать сообщения:    
    Ответить на тему

    Текущее время: Сегодня, в 00:11

    Часовой пояс: GMT + 2



    Вы не можете начинать темы
    Вы не можете отвечать на сообщения
    Вы не можете редактировать свои сообщения
    Вы не можете удалять свои сообщения
    Вы не можете голосовать в опросах
    Вы не можете прикреплять файлы к сообщениям
    Вы не можете скачивать файлы