BitTorrentTracker PerecTracker.org
BitTorrentTracker PerecTracker.org
    
Регистрация  ·  Вход
 
 · 
Забыли пароль?

  • Любите Куперов / Love the Coopers (Джесси Нельсон / Jessie Nelson) [2015 г., США, комедия, BDRip] Dub (BD RUS) + Original Eng + Sub (Eng)

    Ответить на тему
     
    Автор Сообщение

    rechyn

    Создавать темы 12-Мар-2016 00:37

           

    [Цитировать]

    -Любите Куперов / Love the Coopers«Christmas means comfort, joy and chaos»Страна: США
    Студия: CBS Films, Groundswell Productions, Imagine Entertainment
    Жанр: комедия
    Год выпуска: 2015
    Продолжительность: 01:47:06-Перевод: Профессиональный (полное дублирование) BD RUS
    Оригинальная аудиодорожка: английская
    Cубтитры: английские
    Режиссер: Джесси Нельсон / Jessie Nelson
    В ролях: Дайан Китон, Джон Гудман, Эд Хелмс, Алекс Борштейн, Тимоти Чаламет, Максвелл Симкинс, Блейк Баумгартнер, Аманда Сайфред, Алан Аркин, Дэн Амбойер
    Описание: Феерическая рождественская комедия о том, что бывает, когда на праздник собираются представители четырех поколений одной большой семьи...-
    Сэмпл: скачать-Релиз от -
    Автор рипа: Elheym
    Качество: BDRip ([url=viewtopic.php?t=5181268]источник[/url]: / Blu-ray US [LOVE_T_COOPERS_BLUEBIRD] / 1080p)
    Контейнер: AVI
    Видео: 720x304 (2.37:1), 23.976 fps, XviD build 65 ~2014 kbps avg, 0.38 bit/pixel
    Аудио #1: Русский: AC3, 5.1, 48 kHz, ~448 Кбит/с | Профессиональный (полное дублирование) BD RUS |
    Аудио #2: Английский: AC3, 5.1, 48 kHz, ~448 Кбит/с | Оригинал |
    Субтитры: английские (полные x2, SDH, SDH цветные)
    Размер: 2234.72 Mb (1/2 DVD)

    MediaInfo

    Полное имя : Lyubite.Kuperov.2015.DUAL.BDRip.XviD.AC3.-HQCLUB.avi
    Формат : AVI
    Формат/Информация : Audio Video Interleave
    Профиль формата : OpenDML
    Размер файла : 2,18 Гбайт
    Продолжительность : 1 ч. 47 м.
    Общий поток : 2917 Кбит/сек
    Название фильма : Любите Куперов / Love the Coopers (2015) BDRip
    Автор : Elheym
    Программа кодирования : VirtualDubMod 1.5.10.2 (build 2540/release)
    Авторское право : HQCLUB
    Дата : 10.03.2016
    Видео
    Идентификатор : 0
    Формат : MPEG-4 Visual
    Профиль формата : Advanced Simple@L5
    Параметр BVOP формата : 1
    Параметр QPel формата : Нет
    Параметр GMC формата : Без точки перехода
    Параметр матрицы формата : Выборочная
    Идентификатор кодека : XVID
    Идентификатор кодека/Подсказка : XviD
    Продолжительность : 1 ч. 47 м.
    Битрейт : 2003 Кбит/сек
    Ширина : 720 пикселей
    Высота : 304 пикселя
    Соотношение сторон : 2,35:1
    Частота кадров : 23,976 (24000/1001) кадра/сек
    Цветовое пространство : YUV
    Субдискретизация насыщенности : 4:2:0
    Битовая глубина : 8 бит
    Тип развёртки : Прогрессивная
    Метод сжатия : С потерями
    Бит/(Пиксели*Кадры) : 0.382
    Размер потока : 1,50 Гбайт (69%)
    Библиотека кодирования : XviD 65
    Аудио #1
    Идентификатор : 1
    Формат : AC-3
    Формат/Информация : Audio Coding 3
    Расширение режима : CM (complete main)
    Параметр Endianness формата : Big
    Идентификатор кодека : 2000
    Продолжительность : 1 ч. 47 м.
    Вид битрейта : Постоянный
    Битрейт : 448 Кбит/сек
    Каналы : 6 каналов
    Расположение каналов : Front: L C R, Side: L R, LFE
    Частота : 48,0 КГц
    Частота кадров : 31,250 кадров/сек (1536 spf)
    Метод сжатия : С потерями
    Размер потока : 343 Мбайт (15%)
    Выравнивание : Разделение по промежуткам
    Продолжительность промежутка : 42 мс. (1,00 видеокадр)
    Время предзагрузки промежутка : 500 мс.
    Аудио #2
    Идентификатор : 2
    Формат : AC-3
    Формат/Информация : Audio Coding 3
    Расширение режима : CM (complete main)
    Параметр Endianness формата : Big
    Идентификатор кодека : 2000
    Продолжительность : 1 ч. 47 м.
    Вид битрейта : Постоянный
    Битрейт : 448 Кбит/сек
    Каналы : 6 каналов
    Расположение каналов : Front: L C R, Side: L R, LFE
    Частота : 48,0 КГц
    Частота кадров : 31,250 кадров/сек (1536 spf)
    Метод сжатия : С потерями
    Размер потока : 343 Мбайт (15%)
    Выравнивание : Разделение по промежуткам
    Продолжительность промежутка : 42 мс. (1,00 видеокадр)
    Время предзагрузки промежутка : 500 мс.

    Скриншоты

    Скачать .torrent

    Скачать торрент-файл бесплатно и на максимальной скорости!

    Как скачивать? · Что такое торрент? · Рейтинг и ограничения

    !ВНИМАНИЕ!
    Сайт не распространяет и не хранит электронные версии произведений, а занимается лишь лишь предоставлением доступа к создаваемому пользователями каталогу ссылок на торрент-файлы, которые содержат только списки хеш-сумм, убедительная просьба с жалобами обращаться напрямую к пользователю. Файлы для обмена на трекере предоставлены пользователями сайта, и администрация не несёт ответственности за их содержание. Просьба не заливать файлы, защищенные авторскими правами, а также файлы нелегального содержания!


    _________________
    [Профиль] [ЛС]
    Показать сообщения:    
    Ответить на тему

    Текущее время: Сегодня, в 04:09

    Часовой пояс: GMT + 2



    Вы не можете начинать темы
    Вы не можете отвечать на сообщения
    Вы не можете редактировать свои сообщения
    Вы не можете удалять свои сообщения
    Вы не можете голосовать в опросах
    Вы не можете прикреплять файлы к сообщениям
    Вы не можете скачивать файлы