BitTorrentTracker PerecTracker.org
BitTorrentTracker PerecTracker.org
    
Регистрация  ·  Вход
 
 · 
Забыли пароль?

  • 33 / The 33 (Патрисия Ригген / Patricia Riggen) [2015, США, Чили, драма, биография, история, BDRip-AVC] MVO (IdeaFilm)

    Ответить на тему
     
    Автор Сообщение

    rechyn

    Создавать темы 12-Мар-2016 00:37

           

    [Цитировать]

    33 / The 33
    «Hope Runs Deep»
    -Страна: США, Чили
    Жанр: драма, биография, история
    Год выпуска: 2015
    Продолжительность: 02:07:09
    Перевод : Профессиональный (многоголосый закадровый) (IdeaFilm)
    Навигация по главам: есть
    Режиссёр: Патрисия Ригген / Patricia Riggen
    В ролях: Антонио Бандерас, Родриго Санторо, Жюльет Бинош, Джеймс Бролин, Лу Даймонд Филлипс, Марио Касас, Джейкоб Варгас, Хуан Пабло Раба, Оскар Нунез, Теноч Уэрта.
    Описание: Фильм, основанный на реальных событиях, расскажет о тридцати трех чилийских шахтерах, которые в 2010 году на 69 дней оказались в ловушке под землей.

    Качество видео: BDRip-AVC (исходник - BDRemux|The.33.2015.BluRay.REMUX.1080p.AVC.DTS-HD.MA.5.1-HDArea)
    Формат видео: MKV
    Видео: x264, 1056x440 (2.40:1), 23,976 fps, ~2075 kbps, 0.186 bit/pixel
    Аудио: 48 kHz, AC3 Dolby Digital, 3/2 (L,C,R,l,r) + LFE ch, ~384 kbps
    MediaInfo | x264 log
    Format : Matroska
    Format version : Version 4 / Version 2
    File size : 2.18 GiB
    Duration : 2h 7mn
    Overall bit rate : 2 459 Kbps
    Movie name : 33 / The 33 (2015) :: AFM ::
    Encoded date : UTC 2016-03-11 13:21:51
    Writing application : mkvmerge v8.3.0 ('Over the Horizon') 32bit
    Writing library : libebml v1.3.1 + libmatroska v1.4.2
    Video
    ID : 1
    Format : AVC
    Format/Info : Advanced Video Codec
    Format profile : High@L4.1
    Format settings, CABAC : Yes
    Format settings, ReFrames : 10 frames
    Codec ID : V_MPEG4/ISO/AVC
    Duration : 2h 7mn
    Bit rate : 2 075 Kbps
    Width : 1 056 pixels
    Height : 440 pixels
    Display aspect ratio : 2.40:1
    Frame rate mode : Constant
    Frame rate : 23.976 fps
    Color space : YUV
    Chroma subsampling : 4:2:0
    Bit depth : 8 bits
    Scan type : Progressive
    Bits/(Pixel*Frame) : 0.186
    Stream size : 1.80 GiB (82%)
    Title : BDRip by AFM [RuTracker.org]
    Writing library : x264 core 148 r2665+53 6629127 t_mod_Custom [8-bit@all X86_64]
    Encoding settings : cabac=1 / ref=10 / deblock=1:-2:-2 / analyse=0x3:0x113 / me=umh / subme=11 / psy=1 / fade_compensate=0.00 / psy_rd=1.00:0.00 / mixed_ref=1 / me_range=32 / chroma_me=1 / trellis=2 / 8x8dct=1 / cqm=0 / deadzone=21,11 / fast_pskip=0 / chroma_qp_offset=-2 / threads=6 / lookahead_threads=1 / sliced_threads=0 / nr=0 / decimate=0 / interlaced=0 / bluray_compat=0 / constrained_intra=0 / fgo=0 / bframes=13 / b_pyramid=2 / b_adapt=2 / b_bias=0 / direct=3 / weightb=1 / open_gop=0 / weightp=2 / keyint=250 / keyint_min=23 / scenecut=40 / intra_refresh=0 / rc_lookahead=40 / rc=2pass / mbtree=0 / bitrate=2075 / ratetol=1.0 / qcomp=0.65 / qpmin=0:0:0 / qpmax=69:69:69 / qpstep=4 / cplxblur=20.0 / qblur=0.5 / vbv_maxrate=50000 / vbv_bufsize=62500 / nal_hrd=none / filler=0 / ip_ratio=1.35 / pb_ratio=1.30 / aq=1:0.90 / aq-sensitivity=10.00 / aq-factor=1.00:1.00:1.00 / aq2=0 / aq3=0 / zones=173730,182921,q=30
    Language : Russian
    Default : Yes
    Forced : No
    Audio
    ID : 2
    Format : AC-3
    Format/Info : Audio Coding 3
    Mode extension : CM (complete main)
    Format settings, Endianness : Big
    Codec ID : A_AC3
    Duration : 2h 7mn
    Bit rate mode : Constant
    Bit rate : 384 Kbps
    Channel(s) : 6 channels
    Channel positions : Front: L C R, Side: L R, LFE
    Sampling rate : 48.0 KHz
    Compression mode : Lossy
    Stream size : 349 MiB (16%)
    Title : MVO (Ideafilm) AC3 5.1 ~384 kbps
    Language : Russian
    Default : Yes
    Forced : No
    Menu
    00:00:00.000 : en:00:00:00.000
    00:11:13.965 : en:00:11:13.965
    00:21:10.436 : en:00:21:10.436
    00:30:22.362 : en:00:30:22.362
    00:41:54.679 : en:00:41:54.679
    00:51:01.684 : en:00:51:01.684
    01:01:35.317 : en:01:01:35.317
    01:11:18.983 : en:01:11:18.983
    01:24:02.412 : en:01:24:02.412
    01:34:12.689 : en:01:34:12.689
    01:45:17.561 : en:01:45:17.561
    01:56:48.460 : en:01:56:48.460

    x264

    x264 [info]: frame I:1173 Avg QP:16.14 size: 62274
    x264 [info]: frame P:43547 Avg QP:20.18 size: 21057
    x264 [info]: frame B:138201 Avg QP:20.80 size: 7142
    x264 [info]: consecutive B-frames: 3.9% 3.4% 9.7% 19.8% 19.0% 33.8% 4.5% 1.5% 1.0% 0.6% 0.6% 0.5% 0.6% 1.0%
    x264 [info]: mb I I16..4: 5.5% 75.4% 19.2%
    x264 [info]: mb P I16..4: 0.8% 8.3% 1.4% P16..4: 30.8% 35.9% 12.1% 0.0% 0.0% skip:10.8%
    x264 [info]: mb B I16..4: 0.1% 0.7% 0.1% B16..8: 36.8% 20.6% 3.6% direct: 4.6% skip:33.5% L0:43.5% L1:46.2% BI:10.3%
    x264 [info]: 8x8 transform intra:78.7% inter:61.3%
    x264 [info]: direct mvs spatial:98.1% temporal:1.9%
    x264 [info]: coded y,uvDC,uvAC intra: 85.3% 85.1% 68.0% inter: 24.0% 21.9% 9.7%
    x264 [info]: i16 v,h,dc,p: 33% 14% 6% 46%
    x264 [info]: i8 v,h,dc,ddl,ddr,vr,hd,vl,hu: 11% 6% 8% 10% 15% 14% 13% 12% 12%
    x264 [info]: i4 v,h,dc,ddl,ddr,vr,hd,vl,hu: 13% 7% 7% 9% 15% 14% 13% 11% 12%
    x264 [info]: i8c dc,h,v,p: 43% 22% 17% 18%
    x264 [info]: Weighted P-Frames: Y:98.2% UV:2.3%
    x264 [info]: ref P L0: 45.6% 10.2% 17.2% 6.8% 5.8% 4.0% 3.7% 2.1% 2.2% 1.9% 0.4% 0.0%
    x264 [info]: ref B L0: 71.0% 12.6% 6.3% 3.4% 2.3% 2.0% 1.5% 0.7% 0.3%
    x264 [info]: ref B L1: 92.4% 7.6%
    x264 [info]: kb/s:2073.08

    Скриншоты

    с названием

    Скачать .torrent

    Скачать торрент-файл бесплатно и на максимальной скорости!

    Как скачивать? · Что такое торрент? · Рейтинг и ограничения

    !ВНИМАНИЕ!
    Сайт не распространяет и не хранит электронные версии произведений, а занимается лишь лишь предоставлением доступа к создаваемому пользователями каталогу ссылок на торрент-файлы, которые содержат только списки хеш-сумм, убедительная просьба с жалобами обращаться напрямую к пользователю. Файлы для обмена на трекере предоставлены пользователями сайта, и администрация не несёт ответственности за их содержание. Просьба не заливать файлы, защищенные авторскими правами, а также файлы нелегального содержания!


    _________________
    [Профиль] [ЛС]
    Показать сообщения:    
    Ответить на тему

    Текущее время: Сегодня, в 11:56

    Часовой пояс: GMT + 2



    Вы не можете начинать темы
    Вы не можете отвечать на сообщения
    Вы не можете редактировать свои сообщения
    Вы не можете удалять свои сообщения
    Вы не можете голосовать в опросах
    Вы не можете прикреплять файлы к сообщениям
    Вы не можете скачивать файлы