BitTorrentTracker PerecTracker.org
BitTorrentTracker PerecTracker.org
    
Регистрация  ·  Вход
 
 · 
Забыли пароль?

  • Парикмахерская / Barbershop (Тим Стори / Tim Story) [2002, США, комедия, WEB-DL 1080p] MVO (MGM) + DVO (Гемини) + Original + Sub (Rus, Eng)

    Ответить на тему
     
    Автор Сообщение

    Flirldrerve

    Создавать темы 10-Мар-2016 23:52

           

    [Цитировать]

    Парикмахерская / Barbershop-Год выпуска: 2002
    Страна: США
    Студия: Metro-Goldwyn-Mayer (MGM)
    Жанр: Комедия
    Продолжительность: 01:42:28
    Перевод:
    • Профессиональный (многоголосый закадровый) MGM
    • Профессиональный (двухголосый закадровый) Гемини Фильм |VHS|
    Cубтитры: русские, английские
    Оригинальная аудиодорожка: английский
    -Режиссер: Тим Стори / Tim Story-В ролях: Айс Кьюб, Энтони Андерсон, Седрик «Развлекатель», Шон Патрик Томас, Ив, Трой Гарити, Майкл Или, Леонард Эрл Хаузи, Кит Дэвид, Джасмин Льюис и другие.-Роли озвучивали:
    • MGM: Александр Комлев и другие.
    • Гемини Фильм: Александр Новиков, Марина Тарасова.
    -Описание: Кельвин (Айс Кьюб) всю жизнь мечтал разбогатеть, создать свою музыкальную студию и почивать на лаврах воротилы шоу-бизнеса. Но после смерти отца ему достался не стартовый капитал, а куча долгов да старая парикмахерская в придачу. Куда проще, казалось, избавиться от обузы - спихнуть её местному толстосуму. Вот только вся округа давно записала цирюльню в список местных достопримечательностей, своеобразного клуба по интересам, где ветреные юноши встречают свою первую любовь, бойкие на язык старушки обмениваются сплетнями, а легкомысленные девушки находят работу. Все завсегдатаи совершенно не хотят видеть на любимом месте стриптиз-клуб. Но смогут ли они верную парикмахерскую, если дело пахнет большими деньгами?-

    Доп. информация

    Первые 05 мин. 01 сек. в аудиодорожке Гемини Фильм были пропущены и заменены аудиодорожкой MGM.
    -РЕЛИЗ ОТ: V.SERIJ2013-Спасибо lizing48, FiziK-dmb за аудиодорожку MGM, Fikaloid за оцифровку и обложку VHS-издания Гемини Фильм и v.serij2013 (т.е., мне) за обработку и сведение.-Качество: WEB-DL 1080p |FraMeSToR|
    Формат: MKV
    Видео кодек: H.264
    Аудио кодек: AC3
    Видео: H.264, 1916x1032 (1.85:1), 23.976 fps, ~5229 kbps, 0.110 bit/pixel
    Аудио:
    • русская |MGM|: AC3, 48 kHz, 2 ch, 192 kbps
      русская |Гемини Фильм|: AC3, 48 kHz, 2 ch, 256 kbps
    • английская |Оригинал|: AC3, 48 kHz, 6 ch, 384 kbps
    -Сэмпл \ Кинопоиск-

    Скриншоты

    Media Info

    General
    Unique ID                      : 251382753181906922678306577287841609344 (0xBD1E8EA3B66455CA9FA7708A73187680)
    Complete name                  : E:\Video\HD\Movies (HD)\Barbershop (2002) (WEB-DL 1080p).mkv
    Format                         : Matroska
    Format version                 : Version 4 / Version 2
    File size                      : 4.43 GiB
    Duration                       : 1h 42mn
    Overall bit rate               : 6 184 Kbps
    Encoded date                   : UTC 2016-03-09 07:20:19
    Writing application            : mkvmerge v8.8.0 ('Wind at my back') 32bit
    Writing library                : libebml v1.3.3 + libmatroska v1.4.4
    DURATION                       : 01:37:14.238000000
    NUMBER_OF_FRAMES               : 1636
    NUMBER_OF_BYTES                : 90855
    _STATISTICS_WRITING_APP        : mkvmerge v8.8.0 ('Wind at my back') 32bit
    _STATISTICS_WRITING_DATE_UTC   : 2016-03-09 07:20:19
    _STATISTICS_TAGS               : BPS DURATION NUMBER_OF_FRAMES NUMBER_OF_BYTES
    Video
    ID                             : 1
    Format                         : AVC
    Format/Info                    : Advanced Video Codec
    Format profile                 : High@L4.0
    Format settings, CABAC         : Yes
    Format settings, ReFrames      : 4 frames
    Codec ID                       : V_MPEG4/ISO/AVC
    Duration                       : 1h 42mn
    Bit rate                       : 5 229 Kbps
    Width                          : 1 916 pixels
    Height                         : 1 032 pixels
    Display aspect ratio           : 1.85:1
    Frame rate mode                : Constant
    Frame rate                     : 23.976 fps
    Color space                    : YUV
    Chroma subsampling             : 4:2:0
    Bit depth                      : 8 bits
    Scan type                      : Progressive
    Bits/(Pixel*Frame)             : 0.110
    Stream size                    : 3.74 GiB (85%)
    Language                       : English
    Default                        : Yes
    Forced                         : No
    Color primaries                : BT.709
    Transfer characteristics       : BT.709
    Matrix coefficients            : BT.709
    Color range                    : Limited
    Audio #1
    ID                             : 2
    Format                         : AC-3
    Format/Info                    : Audio Coding 3
    Mode extension                 : CM (complete main)
    Format settings, Endianness    : Big
    Codec ID                       : A_AC3
    Duration                       : 1h 42mn
    Bit rate mode                  : Constant
    Bit rate                       : 192 Kbps
    Channel(s)                     : 2 channels
    Channel positions              : Front: L R
    Sampling rate                  : 48.0 KHz
    Bit depth                      : 16 bits
    Compression mode               : Lossy
    Stream size                    : 141 MiB (3%)
    Title                          : MVO (MGM)
    Language                       : Russian
    Default                        : Yes
    Forced                         : No
    Audio #2
    ID                             : 3
    Format                         : AC-3
    Format/Info                    : Audio Coding 3
    Mode extension                 : CM (complete main)
    Format settings, Endianness    : Big
    Codec ID                       : A_AC3
    Duration                       : 1h 42mn
    Bit rate mode                  : Constant
    Bit rate                       : 256 Kbps
    Channel(s)                     : 2 channels
    Channel positions              : Front: L R
    Sampling rate                  : 48.0 KHz
    Bit depth                      : 16 bits
    Compression mode               : Lossy
    Stream size                    : 188 MiB (4%)
    Title                          : DVO (Гемини Фильм)
    Language                       : Russian
    Default                        : No
    Forced                         : No
    Audio #3
    ID                             : 4
    Format                         : AC-3
    Format/Info                    : Audio Coding 3
    Mode extension                 : CM (complete main)
    Format settings, Endianness    : Big
    Codec ID                       : A_AC3
    Duration                       : 1h 42mn
    Bit rate mode                  : Constant
    Bit rate                       : 384 Kbps
    Channel(s)                     : 6 channels
    Channel positions              : Front: L C R, Side: L R, LFE
    Sampling rate                  : 48.0 KHz
    Bit depth                      : 16 bits
    Compression mode               : Lossy
    Stream size                    : 281 MiB (6%)
    Title                          : Original
    Language                       : English
    Default                        : No
    Forced                         : No
    Text #1
    ID                             : 5
    Format                         : UTF-8
    Codec ID                       : S_TEXT/UTF8
    Codec ID/Info                  : UTF-8 Plain Text
    Language                       : Russian
    Default                        : No
    Forced                         : No
    Text #2
    ID                             : 6
    Format                         : UTF-8
    Codec ID                       : S_TEXT/UTF8
    Codec ID/Info                  : UTF-8 Plain Text
    Language                       : English
    Default                        : No
    Forced                         : No
    Menu
    00:00:00.000                   : en:Chapter 1
    00:14:51.000                   : en:Chapter 2
    00:29:47.000                   : en:Chapter 3
    00:41:23.000                   : en:Chapter 4
    00:53:04.000                   : en:Chapter 5
    01:07:30.000                   : en:Chapter 6
    01:20:53.000                   : en:Chapter 7
    01:30:41.000                   : en:Chapter 8
    -
    Скачать .torrent

    Скачать торрент-файл бесплатно и на максимальной скорости!

    Как скачивать? · Что такое торрент? · Рейтинг и ограничения

    !ВНИМАНИЕ!
    Сайт не распространяет и не хранит электронные версии произведений, а занимается лишь лишь предоставлением доступа к создаваемому пользователями каталогу ссылок на торрент-файлы, которые содержат только списки хеш-сумм, убедительная просьба с жалобами обращаться напрямую к пользователю. Файлы для обмена на трекере предоставлены пользователями сайта, и администрация не несёт ответственности за их содержание. Просьба не заливать файлы, защищенные авторскими правами, а также файлы нелегального содержания!


    _________________
    [Профиль] [ЛС]
    Показать сообщения:    
    Ответить на тему

    Текущее время: Сегодня, в 10:42

    Часовой пояс: GMT + 2



    Вы не можете начинать темы
    Вы не можете отвечать на сообщения
    Вы не можете редактировать свои сообщения
    Вы не можете удалять свои сообщения
    Вы не можете голосовать в опросах
    Вы не можете прикреплять файлы к сообщениям
    Вы не можете скачивать файлы