Register  ·  Log in
Forgot password?

  • Отчужденная / Estranged (Адам Левинс / Adam Levins) [2015, Великобритания, триллер, WEB-DLRip] VO (Хихикающий доктор)

    Reply to topic
    Author Message


    Post 10-Mar-2016 12:37



    Отчужденная / Estranged
    Страна: Великобритания
    Жанр: триллер
    Год выпуска: 2015
    Продолжительность: 01:28:33
    Перевод: Одноголосый закадровый Хихикающий доктор
    Cубтитры: нет
    Режиссер: Адам Левинс / Adam Levins
    В ролях: Крэйг Конуэй, Джеймс Космо, Боб Дафф, Джеймс Лэнс, Эми Мэнсон, Фэй МакЛафлин, Айлин Николас, Нора-Джейн Нун, Саймон Куотерман, Джой Сандерс
    Описание: Несчастный случай сделал девушку недееспособной, с провалами в памяти и прикованной инвалидному креслу. Она с бойфрендом возвращается домой после того, как находилась за границей в течение шести лет. Не в состоянии вспомнить свою семью или своё собственное детство и почему покинула дом, девушка быстро обнаруживает, что ее родственники не столь любящие, как она думала ранее.
    Качество видео: WEB-DLRip
    Формат видео: AVI
    Видео: Xvid 720x384 25fps 2 006 Kbps
    Аудио: Dolby AC3 48000Hz stereo 192kbps


    Format : AVI
    Format/Info : Audio Video Interleave
    File size : 1.37 GiB
    Duration : 1h 28mn
    Overall bit rate : 2 208 Kbps
    Writing application : VirtualDubMod | || (build 2550/release)
    Writing library : VirtualDubMod build 2550/release
    ID : 0
    Format : MPEG-4 Visual
    Format profile : Advanced Simple@L5
    Format settings, BVOP : Yes
    Format settings, QPel : No
    Format settings, GMC : No warppoints
    Format settings, Matrix : Default (H.263)
    Codec ID : XVID
    Codec ID/Hint : XviD
    Duration : 1h 28mn
    Bit rate : 2 006 Kbps
    Width : 720 pixels
    Height : 384 pixels
    Display aspect ratio : 1.85:1
    Frame rate : 25.000 fps
    Color space : YUV
    Chroma subsampling : 4:2:0
    Bit depth : 8 bits
    Scan type : Progressive
    Compression mode : Lossy
    Bits/(Pixel*Frame) : 0.290
    Stream size : 1.24 GiB (91%)
    Writing library : XviD 66
    ID : 1
    Format : AC-3
    Format/Info : Audio Coding 3
    Mode extension : CM (complete main)
    Format settings, Endianness : Big
    Codec ID : 2000
    Duration : 1h 28mn
    Bit rate mode : Constant
    Bit rate : 192 Kbps
    Channel count : 2 channels
    Channel positions : Front: L R
    Sampling rate : 48.0 KHz
    Bit depth : 16 bits
    Compression mode : Lossy
    Stream size : 122 MiB (9%)
    Alignment : Split accross interleaves
    Interleave, duration : 40 ms (1.00 video frame)
    Interleave, preload duration : 500 ms

    Скриншот c названием фильма


    Download .torrent

    Download free and at maximum speed!

    How to Download? · What is a torrent? · Ratings and Limitations

    The site does not extend and does not store electronic(digital) versions of products, and only gives access to a reference catalogue created by users on torrent-files which contain only lists of the hash-sums, the earnest entreaty, with complaints(abuse) to access directly to the user. Files for an exchange on tracker are given by users of a site, and the administration does not bear the responsibility for their maintenance. The request to not fill in the files protected by copyrights, and also files of the illegal maintenance!

    [Profile] [PM]
    Display posts from previous:    
    Reply to topic

    The time now is: Today 08:58

    All times are GMT + 3 Hours

    You cannot post new topics in this forum
    You cannot reply to topics in this forum
    You cannot edit your posts in this forum
    You cannot delete your posts in this forum
    You cannot vote in polls in this forum
    You cannot attach files in this forum
    You cannot download files in this forum