BitTorrentTracker PerecTracker.org
BitTorrentTracker PerecTracker.org
    
Регистрация  ·  Вход
 
 · 
Забыли пароль?

  • Сёстры / Sisters (Джейсон Мур / Jason Moore) [2015, США, Комедия, HDRip] Dub (iTunes) + Original Eng

    Ответить на тему
     
    Автор Сообщение

    rechyn

    Создавать темы 10-Мар-2016 11:37

           

    [Цитировать]

    Сёстры / Sisters
    Страна: США
    Жанр: Комедия
    Год выпуска: 2015
    Продолжительность: 01:57:46
    Перевод: Профессиональный (дублированный) iTunes
    Cубтитры: нет
    Оригинальная аудиодорожка: английский
    Режиссер: Джейсон Мур / Jason Moore
    В ролях: Эми Полер, Тина Фей, Майя Рудольф, Айк Баринхолц, Джеймс Бролин, Дайэнн Уист, Джон Сина, Джон Легуизамо, Бобби Мойнахан, Грета Ли
    Описание: Две сестры решают устроить одну последнюю вечеринку в их семейном доме, прежде чем родители продадут его.
    Сэмпл: http://multi-up.com/1092553
    Качество видео: HDRip (исходник не известен)
    Формат видео: AVI
    Видео: Xvid 720x304 23.976fps 1 711 Kbps
    Аудио: Dolby AC3 48000Hz 6ch 384kbps rus
    Аудио 2: Dolby AC3 48000Hz 6ch 384kbps eng

    MediaInfo

    Format : AVI
    Format/Info : Audio Video Interleave
    Format profile : OpenDML
    File size : 2.05 GiB
    Duration : 1h 57mn
    Overall bit rate : 2 497 Kbps
    Writing application : VirtualDubMod 1.5.10.2 (build 2540/release)
    Writing library : VirtualDubMod build 2540/release
    Video
    ID : 0
    Format : MPEG-4 Visual
    Format profile : Advanced Simple@L5
    Format settings, BVOP : Yes
    Format settings, QPel : No
    Format settings, GMC : No warppoints
    Format settings, Matrix : Default (MPEG)
    Codec ID : XVID
    Codec ID/Hint : XviD
    Duration : 1h 57mn
    Bit rate : 1 711 Kbps
    Width : 720 pixels
    Height : 304 pixels
    Display aspect ratio : 2.35:1
    Frame rate : 23.976 fps
    Color space : YUV
    Chroma subsampling : 4:2:0
    Bit depth : 8 bits
    Scan type : Progressive
    Compression mode : Lossy
    Bits/(Pixel*Frame) : 0.326
    Stream size : 1.41 GiB (69%)
    Writing library : XviD 1.2.1 (UTC 2008-12-04)
    Audio #1
    ID : 1
    Format : AC-3
    Format/Info : Audio Coding 3
    Mode extension : CM (complete main)
    Format settings, Endianness : Big
    Codec ID : 2000
    Duration : 1h 57mn
    Bit rate mode : Constant
    Bit rate : 384 Kbps
    Channel count : 6 channels
    Channel positions : Front: L C R, Side: L R, LFE
    Sampling rate : 48.0 KHz
    Bit depth : 16 bits
    Compression mode : Lossy
    Delay relative to video : 15ms
    Stream size : 323 MiB (15%)
    Alignment : Split accross interleaves
    Interleave, duration : 42 ms (1.00 video frame)
    Interleave, preload duration : 500 ms
    Audio #2
    ID : 2
    Format : AC-3
    Format/Info : Audio Coding 3
    Mode extension : CM (complete main)
    Format settings, Endianness : Big
    Codec ID : 2000
    Duration : 1h 57mn
    Bit rate mode : Constant
    Bit rate : 384 Kbps
    Channel count : 6 channels
    Channel positions : Front: L C R, Side: L R, LFE
    Sampling rate : 48.0 KHz
    Bit depth : 16 bits
    Compression mode : Lossy
    Stream size : 323 MiB (15%)
    Alignment : Split accross interleaves
    Interleave, duration : 42 ms (1.00 video frame)
    Interleave, preload duration : 500 ms

    Скриншот c названием фильма

    Скриншоты

    Скачать .torrent

    Скачать торрент-файл бесплатно и на максимальной скорости!

    Как скачивать? · Что такое торрент? · Рейтинг и ограничения

    !ВНИМАНИЕ!
    Сайт не распространяет и не хранит электронные версии произведений, а занимается лишь лишь предоставлением доступа к создаваемому пользователями каталогу ссылок на торрент-файлы, которые содержат только списки хеш-сумм, убедительная просьба с жалобами обращаться напрямую к пользователю. Файлы для обмена на трекере предоставлены пользователями сайта, и администрация не несёт ответственности за их содержание. Просьба не заливать файлы, защищенные авторскими правами, а также файлы нелегального содержания!


    _________________
    [Профиль] [ЛС]
    Показать сообщения:    
    Ответить на тему

    Текущее время: Сегодня, в 16:03

    Часовой пояс: GMT + 2



    Вы не можете начинать темы
    Вы не можете отвечать на сообщения
    Вы не можете редактировать свои сообщения
    Вы не можете удалять свои сообщения
    Вы не можете голосовать в опросах
    Вы не можете прикреплять файлы к сообщениям
    Вы не можете скачивать файлы