BitTorrentTracker PerecTracker.org
BitTorrentTracker PerecTracker.org
    
Регистрация  ·  Вход
 
 · 
Забыли пароль?

  • Финн / Finn (Франс Вайз / Frans Weisz) [2013, Нидерланды, Семейный, WEB-DLRip-AVC] VO + Sub Rus + Original Dut

    Ответить на тему
     
    Автор Сообщение

    rechyn

    Создавать темы 10-Мар-2016 11:37

           

    [Цитировать]

    Финн / Finn
    Страна: Нидерланды
    Жанр: Семейный
    Год выпуска: 2013
    Продолжительность: 01:26:24
    Перевод: Одноголосый закадровый
    Cубтитры: русские
    Оригинальная аудиодорожка: нидерландский
    Режиссер: Франс Вайз / Frans Weisz
    В ролях: Мэлс ван дер Хевен / Mels van der Hoeven, Жустин Эмануэлс / Justin Emanuels, Jenny Arean, Питер Барлэдж / Peter Barlage, Ян Деклер / Jan Decleir, Даан Шуурманс / Daan Schuurmans, Марк ван Эувен / Mark van Eeuwen, Ханна Вербум / Hanna Verboom, Manou Kersting, Fem Petraeus, Esther Scheldwacht, Freerk Bos и др.
    Описание: Девятилетний Финн живет со своим отцом, который считает, что лучшее увлечение для сына – это футбол. Однако вечно мечтательному главному герою очень трудно заработать авторитет среди сверстников и у тренера на футбольном поле. Но однажды Финн услышал прекрасную музыку в исполнении пожилого человека, который играл на скрипке. Мальчик, околдованный этой музыкой, решает забросить футбол. Он обращается с просьбой к скрипачу, чтобы тот научил его играть на этом музыкальном инструменте. Отец, узнав о новом увлечении сына, запрещает ему учиться музыке. Тогда главный герой решает тайно брать уроки, не предполагая, что следуя этим путем, он откроет одну семейную тайну.
    Доп. информация: Фильм взят отсюда http://perectracker.org/viewtopic.php?t=5005949
    Сэмпл: http://multi-up.com/1092575
    Качество видео: WEB-DLRip-AVC
    Формат видео: MKV
    Видео: AVC at 2048 Кбит/сек : 1280 x 532 (2.406) at 25.000 fps
    Аудио 1: MPEG Audio at 128 Кбит/сек : 2 канала, 48,0 КГц Language : ru
    Аудио 2: MPEG Audio at 192 Кбит/сек : 2 канала, 48,0 КГц Language : nl
    Формат субтитров: softsub (SRT)
    Доп. информация о субтитрах: Русские внешние (Дмитрий Дулов aka mitro_fan)

    MediaInfo

    Общее
    Уникальный идентификатор : 212481425585983685582901225634019400877 (0x9FDA6F1BAFC28D6A969BD36550ABDCAD)
    Полное имя : F:\С моей озвучкой\Финн\Finn.mkv
    Формат : Matroska
    Версия формата : Version 4 / Version 2
    Размер файла : 1,42 Гбайт
    Продолжительность : 1 ч. 26 м.
    Общий поток : 2357 Кбит/сек
    Дата кодирования : UTC 2016-03-09 23:48:59
    Программа кодирования : mkvmerge v7.9.0 ('Birds') 64bit
    Библиотека кодирования : libebml v1.3.1 + libmatroska v1.4.2
    DURATION : 01:26:24.864000000
    NUMBER_OF_FRAMES : 216036
    NUMBER_OF_BYTES : 82957824
    _STATISTICS_WRITING_APP : mkvmerge v7.9.0 ('Birds') 64bit
    _STATISTICS_WRITING_DATE_UTC : 2016-03-09 23:48:59
    _STATISTICS_TAGS : BPS DURATION NUMBER_OF_FRAMES NUMBER_OF_BYTES
    Видео
    Идентификатор : 1
    Формат : AVC
    Формат/Информация : Advanced Video Codec
    Профиль формата : Baseline@L3.1
    Параметр CABAC формата : Нет
    Параметр ReFrames формата : 1 кадр
    Идентификатор кодека : V_MPEG4/ISO/AVC
    Продолжительность : 1 ч. 26 м.
    Битрейт : 2048 Кбит/сек
    Ширина : 1280 пикселей
    Высота : 532 пикселя
    Соотношение сторон : 2,40:1
    Режим частоты кадров : Постоянный
    Частота кадров : 25,000 кадров/сек
    Цветовое пространство : YUV
    Субдискретизация насыщенности : 4:2:0
    Битовая глубина : 8 бит
    Тип развёртки : Прогрессивная
    Бит/(Пиксели*Кадры) : 0.120
    Размер потока : 1,20 Гбайт (84%)
    Библиотека кодирования : x264 core 112
    Настройки программы : cabac=0 / ref=1 / deblock=1:0:0 / analyse=0x1:0x111 / me=hex / subme=7 / psy=1 / psy_rd=1.00:0.00 / mixed_ref=0 / me_range=16 / chroma_me=1 / trellis=1 / 8x8dct=0 / cqm=0 / deadzone=21,11 / fast_pskip=1 / chroma_qp_offset=-2 / threads=1 / sliced_threads=0 / nr=0 / decimate=1 / interlaced=0 / constrained_intra=0 / bframes=0 / weightp=0 / keyint=250 / keyint_min=25 / scenecut=40 / intra_refresh=0 / rc_lookahead=40 / rc=abr / mbtree=1 / bitrate=2048 / ratetol=1.0 / qcomp=0.60 / qpmin=10 / qpmax=51 / qpstep=4 / ip_ratio=1.41 / aq=1:1.00
    Default : Да
    Forced : Нет
    DURATION : 01:26:25.680000000
    NUMBER_OF_FRAMES : 129642
    NUMBER_OF_BYTES : 1318984400
    _STATISTICS_WRITING_APP : mkvmerge v7.9.0 ('Birds') 64bit
    _STATISTICS_WRITING_DATE_UTC : 2016-03-09 23:48:59
    _STATISTICS_TAGS : BPS DURATION NUMBER_OF_FRAMES NUMBER_OF_BYTES
    Аудио #1
    Идентификатор : 2
    Формат : MPEG Audio
    Версия формата : Version 1
    Профиль формата : Layer 3
    Режим : Joint stereo
    Расширение режима : MS Stereo
    Идентификатор кодека : A_MPEG/L3
    Идентификатор кодека/Подсказка : MP3
    Продолжительность : 1 ч. 26 м.
    Вид битрейта : Постоянный
    Битрейт : 128 Кбит/сек
    Каналы : 2 канала
    Частота : 48,0 КГц
    Метод сжатия : С потерями
    Размер потока : 79,1 Мбайт (5%)
    Библиотека кодирования : LAME3.96
    Язык : Russian
    Default : Нет
    Forced : Нет
    DURATION : 01:26:25.728000000
    NUMBER_OF_FRAMES : 216072
    NUMBER_OF_BYTES : 124457472
    _STATISTICS_WRITING_APP : mkvmerge v7.9.0 ('Birds') 64bit
    _STATISTICS_WRITING_DATE_UTC : 2016-03-09 23:48:59
    _STATISTICS_TAGS : BPS DURATION NUMBER_OF_FRAMES NUMBER_OF_BYTES
    Аудио #2
    Идентификатор : 3
    Формат : MPEG Audio
    Версия формата : Version 1
    Профиль формата : Layer 3
    Режим : Joint stereo
    Расширение режима : MS Stereo
    Идентификатор кодека : A_MPEG/L3
    Идентификатор кодека/Подсказка : MP3
    Продолжительность : 1 ч. 26 м.
    Вид битрейта : Постоянный
    Битрейт : 192 Кбит/сек
    Каналы : 2 канала
    Частота : 48,0 КГц
    Метод сжатия : С потерями
    Размер потока : 119 Мбайт (8%)
    Библиотека кодирования : LAME3.98.4
    Язык : Dutch
    Default : Нет
    Forced : Нет

    Скриншоты

    Скачать .torrent

    Скачать торрент-файл бесплатно и на максимальной скорости!

    Как скачивать? · Что такое торрент? · Рейтинг и ограничения

    !ВНИМАНИЕ!
    Сайт не распространяет и не хранит электронные версии произведений, а занимается лишь лишь предоставлением доступа к создаваемому пользователями каталогу ссылок на торрент-файлы, которые содержат только списки хеш-сумм, убедительная просьба с жалобами обращаться напрямую к пользователю. Файлы для обмена на трекере предоставлены пользователями сайта, и администрация не несёт ответственности за их содержание. Просьба не заливать файлы, защищенные авторскими правами, а также файлы нелегального содержания!


    _________________
    [Профиль] [ЛС]
    Показать сообщения:    
    Ответить на тему

    Текущее время: Сегодня, в 04:39

    Часовой пояс: GMT + 2



    Вы не можете начинать темы
    Вы не можете отвечать на сообщения
    Вы не можете редактировать свои сообщения
    Вы не можете удалять свои сообщения
    Вы не можете голосовать в опросах
    Вы не можете прикреплять файлы к сообщениям
    Вы не можете скачивать файлы