BitTorrentTracker PerecTracker.org
BitTorrentTracker PerecTracker.org
    
Регистрация  ·  Вход
 
 · 
Забыли пароль?

  • Тайна Рагнарока / Gåten Ragnarok (Миккель Бренне Саннемусе / Mikkel Braenne Sandemose) [2013, Норвегия, приключения, фэнтези, боевик, BDRemux 1080p] MVO (СТС) + DVO (den904, DeadSno) + VO (Чадов) + Original (Nor) + Sub (Rus, Eng)

    Ответить на тему
     
    Автор Сообщение

    Flirldrerve

    Создавать темы 10-Мар-2016 07:33

           

    [Цитировать]

    Тайна Рагнарока / Gåten Ragnarok

    -
    -Страна: Норвегия
    Студия: Fantefilm, Film i Väst, Ghost VFX
    Жанр: приключения, фэнтези, боевик
    Год выпуска: 2013
    Продолжительность: 01:41:08--Перевод 1: Профессиональный (многоголосый закадровый) СТС
    Перевод 2: Одноголосый закадровый М. Чадов по переводу Mannenr
    Перевод 3: Любительский (двухголосый закадровый) den904 & DeadSno по переводу Mannenr
    Cубтитры: русские (С. Бельков aka Mannenr), английские
    Оригинальная аудиодорожка: норвежский--Режиссер: Миккель Бренне Саннемусе / Mikkel Brænne Sandemose
    В ролях: Пол Сверре Хаген, Николай Клеве Брок, Cофия Хелин, Мария Аннетт Таннерёд Берглю, Юлиан Подольски, Бьёрн Сундквист--Описание: Археолог Сигерд Свендсен уже много лет одержим историей судна викингов Осберг. Единственная надпись, найденная на этом корабле написана на языке рун и гласит: «человек знает мало». Сигерд уверен, что судно Осберг скрывает ответ на тайну о Рагнароке — конце дней в норвежской мифологии. Когда его друг Аллан находит подобные руны на камне с севера Норвегии, Сигерд убеждается, что руны — это карта сокровищ. Вместе они отправляются в экспедицию, которая заводит их в «нейтральную зону» между Норвегией и Россией, которая не населена уже многие десятилетия. Здесь Сигерд находит истинное значение рун, которые хранят ужасающую тайну.-- | | Сэмпл--Тип релиза: BDRemux 1080p [Gåten Ragnarok 2013 1080p Blu-ray AVC DTS-HD MA 5.1]
    Контейнер: MKV
    Видео: MPEG-4 AVC / 36108 kbps / 1920x1080 / 24 fps / 16:9 / High Profile 4.1
    Аудио 1: Russian AC3 / 2.0 / 48 kHz / 192 kbps / 16 bits |MVO, СТС|
    Аудио 2: Russian DTS / 5.1 / 48 kHz / 1509 kbps / 16 bits |М. Чадов|
    Аудио 3: Russian DTS-HD Master Audio / 5.1 / 48 kHz / 3862 kbps / 24 bits (DTS Core: 5.1 / 48 kHz / 1509 kbps / 24 bits) |den904 & DeadSno|
    Аудио 4: Norwegian DTS-HD Master Audio / 5.1 / 48 kHz / 3883 kbps / 24 bits (DTS Core: 5.1 / 48 kHz / 1509 kbps / 24 bits) |original|
    Формат субтитров: softsub [SRT]

    MediaInfo

    Общее
    Уникальный идентификатор                 : 249430100331890827245787484000312682745 (0xBBA67D6BCB809B24A40CBE6ABC84E8F9)
    Полное имя                               : G:\HD\Тайна Рагнарока.2013.Blu-Ray.Remux.(1080p).mkv
    Формат                                   : Matroska
    Версия формата                           : Version 4 / Version 2
    Размер файла                             : 32,2 Гбайт
    Продолжительность                        : 1 ч. 41 м.
    Режим общего битрейта                    : Переменный
    Общий поток                              : 45,6 Мбит/сек
    Дата кодирования                         : UTC 2016-03-05 18:38:36
    Программа кодирования                    : mkvmerge v8.9.0 ('Father Daughter') 64bit
    Библиотека кодирования                   : libebml v1.3.3 + libmatroska v1.4.4
    Attachments                              : poster.jpg
    Видео
    Идентификатор                            : 1
    Формат                                   : AVC
    Формат/Информация                        : Advanced Video Codec
    Профиль формата                          : High@L4.1
    Параметр CABAC формата                   : Да
    Параметр ReFrames формата                : 3 кадра
    Идентификатор кодека                     : V_MPEG4/ISO/AVC
    Продолжительность                        : 1 ч. 41 м.
    Вид битрейта                             : Переменный
    Битрейт                                  : 36,1 Мбит/сек
    Номинальный битрейт                      : 38,0 Мбит/сек
    Максимальный битрейт                     : 38,0 Мбит/сек
    Ширина                                   : 1920 пикселей
    Высота                                   : 1080 пикселей
    Соотношение сторон                       : 16:9
    Режим частоты кадров                     : Постоянный
    Частота кадров                           : 24,000 кадра/сек
    Цветовое пространство                    : YUV
    Субдискретизация насыщенности            : 4:2:0
    Битовая глубина                          : 8 бит
    Тип развёртки                            : Прогрессивная
    Бит/(Пиксели*Кадры)                      : 0.726
    Размер потока                            : 25,5 Гбайт (79%)
    Библиотека кодирования                   : x264 core 129 r2245 bc13772
    Настройки программы                      : cabac=1 / ref=4 / deblock=1:-1:-1 / analyse=0x3:0x133 / me=umh / subme=10 / psy=1 / psy_rd=1.00:0.15 / mixed_ref=1 / me_range=24 / chroma_me=1 / trellis=2 / 8x8dct=1 / cqm=0 / deadzone=21,11 / fast_pskip=1 / chroma_qp_offset=-3 / threads=36 / lookahead_threads=6 / sliced_threads=0 / slices=4 / nr=0 / decimate=1 / interlaced=0 / bluray_compat=1 / constrained_intra=0 / bframes=3 / b_pyramid=1 / b_adapt=2 / b_bias=0 / direct=3 / weightb=1 / open_gop=1 / weightp=1 / keyint=24 / keyint_min=1 / scenecut=40 / intra_refresh=0 / rc_lookahead=24 / rc=2pass / mbtree=1 / bitrate=38000 / ratetol=1.0 / qcomp=0.60 / qpmin=0 / qpmax=69 / qpstep=4 / cplxblur=20.0 / qblur=0.5 / vbv_maxrate=38000 / vbv_bufsize=30000 / nal_hrd=vbr / ip_ratio=1.40 / aq=1:1.00
    Default                                  : Да
    Forced                                   : Нет
    Цветовой диапазон                        : Limited
    Основные цвета                           : BT.709
    Характеристики трансфера                 : BT.709
    Коэффициенты матрицы                     : BT.709
    Аудио #1
    Идентификатор                            : 2
    Формат                                   : AC-3
    Формат/Информация                        : Audio Coding 3
    Расширение режима                        : CM (complete main)
    Параметр Endianness формата              : Big
    Идентификатор кодека                     : A_AC3
    Продолжительность                        : 1 ч. 41 м.
    Вид битрейта                             : Постоянный
    Битрейт                                  : 192 Кбит/сек
    Каналы                                   : 2 канала
    Расположение каналов                     : Front: L R
    Частота                                  : 48,0 КГц
    Частота кадров                           : 31,250 кадров/сек (1536 spf)
    Метод сжатия                             : С потерями
    Размер потока                            : 139 Мбайт (0%)
    Заголовок                                : MVO, СТС
    Язык                                     : Russian
    Default                                  : Да
    Forced                                   : Нет
    Аудио #2
    Идентификатор                            : 3
    Формат                                   : DTS
    Формат/Информация                        : Digital Theater Systems
    Режим                                    : 16
    Параметр Endianness формата              : Big
    Идентификатор кодека                     : A_DTS
    Продолжительность                        : 1 ч. 41 м.
    Вид битрейта                             : Постоянный
    Битрейт                                  : 1509 Кбит/сек
    Каналы                                   : 6 каналов
    Расположение каналов                     : Front: L C R, Side: L R, LFE
    Частота                                  : 48,0 КГц
    Частота кадров                           : 93,750 кадра/сек (512 spf)
    Битовая глубина                          : 24 бит
    Метод сжатия                             : С потерями
    Размер потока                            : 1,07 Гбайт (3%)
    Заголовок                                : М. Чадов
    Язык                                     : Russian
    Default                                  : Нет
    Forced                                   : Нет
    Аудио #3
    Идентификатор                            : 4
    Формат                                   : DTS
    Формат/Информация                        : Digital Theater Systems
    Профиль формата                          : MA / Core
    Режим                                    : 16
    Параметр Endianness формата              : Big
    Идентификатор кодека                     : A_DTS
    Продолжительность                        : 1 ч. 41 м.
    Вид битрейта                             : Переменный / Постоянный
    Битрейт                                  : 3840 Кбит/сек / 1509 Кбит/сек
    Каналы                                   : 6 каналов
    Расположение каналов                     : Front: L C R, Side: L R, LFE
    Частота                                  : 48,0 КГц
    Частота кадров                           : 93,750 кадра/сек (512 spf)
    Битовая глубина                          : 24 бит
    Метод сжатия                             : Без потерь / Lossy
    Размер потока                            : 2,73 Гбайт (8%)
    Заголовок                                : den904 & DeadSno
    Язык                                     : Russian
    Default                                  : Нет
    Forced                                   : Нет
    Аудио #4
    Идентификатор                            : 5
    Формат                                   : DTS
    Формат/Информация                        : Digital Theater Systems
    Профиль формата                          : MA / Core
    Режим                                    : 16
    Параметр Endianness формата              : Big
    Идентификатор кодека                     : A_DTS
    Продолжительность                        : 1 ч. 41 м.
    Вид битрейта                             : Переменный / Постоянный
    Битрейт                                  : 3840 Кбит/сек / 1509 Кбит/сек
    Каналы                                   : 6 каналов
    Расположение каналов                     : Front: L C R, Side: L R, LFE
    Частота                                  : 48,0 КГц
    Частота кадров                           : 93,750 кадра/сек (512 spf)
    Битовая глубина                          : 24 бит
    Метод сжатия                             : Без потерь / Lossy
    Размер потока                            : 2,74 Гбайт (9%)
    Язык                                     : Norwegian
    Default                                  : Нет
    Forced                                   : Нет
    Текст #1
    Идентификатор                            : 6
    Формат                                   : UTF-8
    Идентификатор кодека                     : S_TEXT/UTF8
    Идентификатор кодека/Информация          : UTF-8 Plain Text
    Продолжительность                        : 1 ч. 35 м.
    Битрейт                                  : 39 бит/сек
    Count of elements                        : 610
    Размер потока                            : 27,7 Кбайт (0%)
    Заголовок                                : Mannenr
    Язык                                     : Russian
    Default                                  : Нет
    Forced                                   : Нет
    Текст #2
    Идентификатор                            : 7
    Формат                                   : UTF-8
    Идентификатор кодека                     : S_TEXT/UTF8
    Идентификатор кодека/Информация          : UTF-8 Plain Text
    Продолжительность                        : 1 ч. 34 м.
    Битрейт                                  : 26 бит/сек
    Count of elements                        : 613
    Размер потока                            : 18,3 Кбайт (0%)
    Язык                                     : English
    Default                                  : Нет
    Forced                                   : Нет
    Меню
    00:00:00.000                             : :Chapter 01
    00:07:07.666                             : :Chapter 02
    00:16:23.166                             : :Chapter 03
    00:24:55.000                             : :Chapter 04
    00:33:32.541                             : :Chapter 05
    00:40:07.416                             : :Chapter 06
    00:52:19.250                             : :Chapter 07
    00:58:54.666                             : :Chapter 08
    01:07:07.000                             : :Chapter 09
    01:15:54.291                             : :Chapter 10
    01:26:06.375                             : :Chapter 11
    01:36:25.458                             : :Chapter 12

    Скриншоты


    Дополнительно
    Цитата:Дорожка №1 взята с этой раздачи thx: miha2154
    Цитата:
    Цитата:

    Озвучка №2 доступна благодаря mihaildns и будулаюроманову. Работа со звуком - Perevodman
    Цитата:
    Цитата:

    Инфо основного бранча (.m2ts-файла) исходного блюрей диска

    скрытый текст

    Общее
    Идентификатор                            : 0 (0x0)
    Полное имя                               : H:\Без перевода\Gaten Ragnarok\BDMV\STREAM\00007.m2ts
    Формат                                   : BDAV
    Формат/Информация                        : Blu-ray Video
    Размер файла                             : 30,2 Гбайт
    Продолжительность                        : 1 ч. 41 м.
    Режим общего битрейта                    : Переменный
    Общий поток                              : 42,8 Мбит/сек
    Максимальный общий битрейт               : 48,0 Мбит/сек
    Видео
    Идентификатор                            : 4113 (0x1011)
    Идентификатор меню                       : 1 (0x1)
    Формат                                   : AVC
    Формат/Информация                        : Advanced Video Codec
    Профиль формата                          : High@L4.1
    Параметр CABAC формата                   : Да
    Параметр ReFrames формата                : 3 кадра
    Идентификатор кодека                     : 27
    Продолжительность                        : 1 ч. 41 м.
    Вид битрейта                             : Переменный
    Номинальный битрейт                      : 38,0 Мбит/сек
    Максимальный битрейт                     : 38,0 Мбит/сек
    Ширина                                   : 1920 пикселей
    Высота                                   : 1080 пикселей
    Соотношение сторон                       : 16:9
    Частота кадров                           : 24,000 кадра/сек
    Цветовое пространство                    : YUV
    Субдискретизация насыщенности            : 4:2:0
    Битовая глубина                          : 8 бит
    Тип развёртки                            : Прогрессивная
    Бит/(Пиксели*Кадры)                      : 0.764
    Библиотека кодирования                   : x264 core 129 r2245 bc13772
    Настройки программы                      : cabac=1 / ref=4 / deblock=1:-1:-1 / analyse=0x3:0x133 / me=umh / subme=10 / psy=1 / psy_rd=1.00:0.15 / mixed_ref=1 / me_range=24 / chroma_me=1 / trellis=2 / 8x8dct=1 / cqm=0 / deadzone=21,11 / fast_pskip=1 / chroma_qp_offset=-3 / threads=36 / lookahead_threads=6 / sliced_threads=0 / slices=4 / nr=0 / decimate=1 / interlaced=0 / bluray_compat=1 / constrained_intra=0 / bframes=3 / b_pyramid=1 / b_adapt=2 / b_bias=0 / direct=3 / weightb=1 / open_gop=1 / weightp=1 / keyint=24 / keyint_min=1 / scenecut=40 / intra_refresh=0 / rc_lookahead=24 / rc=2pass / mbtree=1 / bitrate=38000 / ratetol=1.0 / qcomp=0.60 / qpmin=0 / qpmax=69 / qpstep=4 / cplxblur=20.0 / qblur=0.5 / vbv_maxrate=38000 / vbv_bufsize=30000 / nal_hrd=vbr / ip_ratio=1.40 / aq=1:1.00
    Основные цвета                           : BT.709
    Характеристики трансфера                 : BT.709
    Коэффициенты матрицы                     : BT.709
    Аудио #1
    Идентификатор                            : 4352 (0x1100)
    Идентификатор меню                       : 1 (0x1)
    Формат                                   : AC-3
    Формат/Информация                        : Audio Coding 3
    Расширение режима                        : CM (complete main)
    Параметр Endianness формата              : Big
    Идентификатор кодека                     : 129
    Продолжительность                        : 1 ч. 41 м.
    Вид битрейта                             : Постоянный
    Битрейт                                  : 640 Кбит/сек
    Каналы                                   : 6 каналов
    Расположение каналов                     : Front: L C R, Side: L R, LFE
    Частота                                  : 48,0 КГц
    Битовая глубина                          : 16 бит
    Метод сжатия                             : С потерями
    Размер потока                            : 463 Мбайт (1%)
    Аудио #2
    Идентификатор                            : 4353 (0x1101)
    Идентификатор меню                       : 1 (0x1)
    Формат                                   : DTS
    Формат/Информация                        : Digital Theater Systems
    Профиль формата                          : MA / Core
    Режим                                    : 16
    Параметр Endianness формата              : Big
    Режим смешивания                         : Stream extension
    Идентификатор кодека                     : 134
    Продолжительность                        : 1 ч. 41 м.
    Вид битрейта                             : Переменный
    Битрейт                                  : Неизвестно / 1509 Кбит/сек
    Каналы                                   : 6 каналов
    Расположение каналов                     : Front: L C R, Side: L R, LFE
    Частота                                  : 48,0 КГц
    Битовая глубина                          : 24 бит
    Метод сжатия                             : Без потерь / Lossy
    Текст #1
    Идентификатор                            : 4608 (0x1200)
    Идентификатор меню                       : 1 (0x1)
    Формат                                   : PGS
    Идентификатор кодека                     : 144
    Текст #2
    Идентификатор                            : 4609 (0x1201)
    Идентификатор меню                       : 1 (0x1)
    Формат                                   : PGS
    Идентификатор кодека                     : 144
    Текст #3
    Идентификатор                            : 4610 (0x1202)
    Идентификатор меню                       : 1 (0x1)
    Формат                                   : PGS
    Идентификатор кодека                     : 144
    Торрент-файл перезалит 06.03.2016. Добавлен проф. перевод
    Скачать .torrent

    Скачать торрент-файл бесплатно и на максимальной скорости!

    Как скачивать? · Что такое торрент? · Рейтинг и ограничения

    !ВНИМАНИЕ!
    Сайт не распространяет и не хранит электронные версии произведений, а занимается лишь лишь предоставлением доступа к создаваемому пользователями каталогу ссылок на торрент-файлы, которые содержат только списки хеш-сумм, убедительная просьба с жалобами обращаться напрямую к пользователю. Файлы для обмена на трекере предоставлены пользователями сайта, и администрация не несёт ответственности за их содержание. Просьба не заливать файлы, защищенные авторскими правами, а также файлы нелегального содержания!


    _________________
    [Профиль] [ЛС]
    Показать сообщения:    
    Ответить на тему

    Текущее время: Сегодня, в 10:22

    Часовой пояс: GMT + 2



    Вы не можете начинать темы
    Вы не можете отвечать на сообщения
    Вы не можете редактировать свои сообщения
    Вы не можете удалять свои сообщения
    Вы не можете голосовать в опросах
    Вы не можете прикреплять файлы к сообщениям
    Вы не можете скачивать файлы