BitTorrentTracker PerecTracker.org
BitTorrentTracker PerecTracker.org
    
Регистрация  ·  Вход
 
 · 
Забыли пароль?

  • Дикие истории / Relatos salvajes / Wild Tales (Дамиан Сифрон / Damián Szifrón) [2014, Аргентина, Испания, триллер, драма, комедия, BDRemux 1080p] Dub + Sub Rus, Eng, Spa + Original Spa

    Ответить на тему
     
    Автор Сообщение

    Flirldrerve

    Создавать темы 10-Мар-2016 07:32

           

    [Цитировать]

    -Дикие истории / Relatos salvajes / Wild Tales-Страна: Аргентина, Испания
    Жанр: триллер, драма, комедия
    Год выпуска: 2014
    Продолжительность: 02:01:59-Перевод: Профессиональный (дублированный)
    Cубтитры: русские, английские, испанские
    Оригинальная аудиодорожка: испанский-Режиссер: Дамиан Сифрон / Damián Szifrón
    В ролях: Рикардо Дарин, Оскар Мартинес, Леонардо Сбараглиа, Эрика Ривас, Рита Кортесе, Хульета Сильберберг, Дарио Грандинетти, Мария Онетто, Нэнси Дуплаа, Осмар Нуньес-Описание: Гэбриела Пастернака обижали многие, с кем сводила его жизнь — девушка, учитель музыки, профессор в консерватории, дантист. И вот все они, на свою беду, оказались вместе с ним в одном самолете… Ночью в придорожной закусочной официантка узнает в посетителе ростовщика, который много лет назад довел до самоубийства ее отца. А у поварихи, в прошлом отсидевшей срок, для мести такому гаду сразу нашлось средство — крысиный яд… Городской красавчик ехал на своей мощной Audi по пустынной дороге и решил обогнать старый Peugeot, но сидевший за рулем провинциальный упырь решил не уступать. И вот уже кровавый итог бессмысленного соперничества не за горами…-Сэмпл: https://yadi.sk/i/VPXWZ9MGpzEWq-Тип релиза: BDRemux 1080p
    Контейнер: MKV
    Видео: MPEG-4 AVC Video / 34865 kbps / 1080p / 23,976 fps / 16:9 / High Profile 4.1
    Аудио: Russian Dolby Digital Audio 384 kbps 5.1 / 48 kHz
    Аудио 2: Spanish / DTS-HD Master Audio / 5.1 / 48 kHz / 1644 kbps / 16-bit (DTS Core: 5.1 / 48 kHz / 768 kbps / 16-bit)
    Формат субтитров: softsub (SRT)

    MI
    GeneralUnique ID : 175485147526742249752747426904662706802 (0x840535C54AE91568A397634AA15D8A72)Complete name : R:\Фильмы\Дикие истории (2014. Relatos salvajes).mkvFormat : MatroskaFormat version : Version 2File size : 31.4 GiBDuration : 2h 1mnOverall bit rate mode : VariableOverall bit rate : 36.9 MbpsMovie name : Release for RuTrackerEncoded date : UTC 2016-03-08 15:14:38Writing application : mkvmerge v4.9.1 ('Ich will') сборка от Jul 11 2011 23:53:15Writing library : libebml v1.2.1 + libmatroska v1.1.1Cover : YesAttachments : cover.jpg
    VideoID : 1Format : AVCFormat/Info : Advanced Video CodecFormat profile : High@L4.1Format settings, CABAC : YesFormat settings, ReFrames : 3 framesCodec ID : V_MPEG4/ISO/AVCDuration : 2h 1mnBit rate mode : VariableNominal bit rate : 35.0 MbpsMaximum bit rate : 38.0 MbpsWidth : 1 920 pixelsHeight : 1 080 pixelsDisplay aspect ratio : 16:9Frame rate mode : ConstantFrame rate : 23.976 (24000/1001) fpsColor space : YUVChroma subsampling : 4:2:0Bit depth : 8 bitsScan type : ProgressiveBits/(Pixel*Frame) : 0.704Title : Relatos salvajes 2014 1080p GBR Blu-ray AVC DTS-HD MA 5.1-ESiRWriting library : x264 core 142 r2431 ac76440Encoding settings : cabac=1 / ref=4 / deblock=1:-1:-1 / analyse=0x3:0x133 / me=umh / subme=10 / psy=1 / psy_rd=1.00:0.15 / mixed_ref=1 / me_range=24 / chroma_me=1 / trellis=2 / 8x8dct=1 / cqm=0 / deadzone=21,11 / fast_pskip=1 / chroma_qp_offset=-6 / threads=12 / lookahead_threads=1 / sliced_threads=0 / slices=4 / nr=0 / decimate=1 / interlaced=0 / bluray_compat=1 / constrained_intra=0 / bframes=3 / b_pyramid=1 / b_adapt=2 / b_bias=0 / direct=3 / weightb=1 / open_gop=1 / weightp=1 / keyint=24 / keyint_min=1 / scenecut=40 / intra_refresh=0 / rc_lookahead=24 / rc=2pass / mbtree=0 / bitrate=35000 / ratetol=0.1 / qcomp=0.00 / qpmin=0 / qpmax=69 / qpstep=4 / cplxblur=20.0 / qblur=0.5 / vbv_maxrate=38000 / vbv_bufsize=30000 / nal_hrd=vbr / filler=0 / ip_ratio=1.40 / pb_ratio=1.30 / aq=1:1.00Language : SpanishDefault : YesForced : NoColor range : LimitedColor primaries : BT.709Transfer characteristics : BT.709Matrix coefficients : BT.709
    Audio #1ID : 2Format : AC-3Format/Info : Audio Coding 3Mode extension : CM (complete main)Format settings, Endianness : BigCodec ID : A_AC3Duration : 2h 1mnBit rate mode : ConstantBit rate : 384 KbpsChannel(s) : 6 channelsChannel positions : Front: L C R, Side: L R, LFESampling rate : 48.0 KHzFrame rate : 31.250 fps (1536 spf)Compression mode : LossyStream size : 335 MiB (1%)Title : ДубляжLanguage : RussianDefault : YesForced : No
    Audio #2ID : 3Format : DTSFormat/Info : Digital Theater SystemsFormat profile : MA / CoreMode : 16Format settings, Endianness : BigCodec ID : A_DTSDuration : 2h 1mnBit rate mode : Variable / ConstantBit rate : Unknown / 768 KbpsChannel(s) : 6 channelsChannel positions : Front: L C R, Side: L R, LFESampling rate : 48.0 KHzFrame rate : 93.750 fps (512 spf)Bit depth : 16 bitsCompression mode : Lossless / LossyLanguage : SpanishDefault : NoForced : No
    Text #1ID : 4Format : UTF-8Codec ID : S_TEXT/UTF8Codec ID/Info : UTF-8 Plain TextLanguage : RussianDefault : NoForced : No
    Text #2ID : 5Format : UTF-8Codec ID : S_TEXT/UTF8Codec ID/Info : UTF-8 Plain TextLanguage : EnglishDefault : NoForced : No
    Text #3ID : 6Format : UTF-8Codec ID : S_TEXT/UTF8Codec ID/Info : UTF-8 Plain TextLanguage : SpanishDefault : NoForced : No
    Text #4ID : 7Format : UTF-8Codec ID : S_TEXT/UTF8Codec ID/Info : UTF-8 Plain TextTitle : SDHLanguage : SpanishDefault : NoForced : No
    Menu00:00:00.000 : en:Pasternak00:10:24.916 : en:The Rats00:20:32.773 : en:The Strongest00:30:38.253 : en:Chapter 400:38:51.913 : en:Little Bomb00:51:20.452 : en:Chapter 601:01:48.330 : en:The Proposal01:10:27.807 : en:Chapter 801:18:33.626 : en:Chapter 901:25:09.730 : en:Until Death Do Us Apart01:36:04.008 : en:Chapter 1101:43:59.733 : en:Chapter 12

    MI основного бранча (.m2ts-файла) исходного блюрей диска

    GeneralID : 0 (0x0)Complete name : S:\Temp\Relatos salvajes 2014 1080p GBR Blu-ray AVC DTS-HD MA 5.1-ESiR\BDMV\STREAM\00001.m2tsFormat : BDAVFormat/Info : Blu-ray VideoFile size : 37.0 GiBDuration : 2h 2mnOverall bit rate mode : VariableOverall bit rate : 43.4 MbpsMaximum Overall bit rate : 48.0 Mbps
    VideoID : 4113 (0x1011)Menu ID : 1 (0x1)Format : AVCFormat/Info : Advanced Video CodecFormat profile : High@L4.1Format settings, CABAC : YesFormat settings, ReFrames : 3 framesCodec ID : 27Duration : 2h 1mnBit rate mode : VariableNominal bit rate : 35.0 MbpsMaximum bit rate : 38.0 MbpsWidth : 1 920 pixelsHeight : 1 080 pixelsDisplay aspect ratio : 16:9Frame rate : 23.976 (24000/1001) fpsColor space : YUVChroma subsampling : 4:2:0Bit depth : 8 bitsScan type : ProgressiveBits/(Pixel*Frame) : 0.704Writing library : x264 core 142 r2431 ac76440Encoding settings : cabac=1 / ref=4 / deblock=1:-1:-1 / analyse=0x3:0x133 / me=umh / subme=10 / psy=1 / psy_rd=1.00:0.15 / mixed_ref=1 / me_range=24 / chroma_me=1 / trellis=2 / 8x8dct=1 / cqm=0 / deadzone=21,11 / fast_pskip=1 / chroma_qp_offset=-6 / threads=12 / lookahead_threads=1 / sliced_threads=0 / slices=4 / nr=0 / decimate=1 / interlaced=0 / bluray_compat=1 / constrained_intra=0 / bframes=3 / b_pyramid=1 / b_adapt=2 / b_bias=0 / direct=3 / weightb=1 / open_gop=1 / weightp=1 / keyint=24 / keyint_min=1 / scenecut=40 / intra_refresh=0 / rc_lookahead=24 / rc=2pass / mbtree=0 / bitrate=35000 / ratetol=0.1 / qcomp=0.00 / qpmin=0 / qpmax=69 / qpstep=4 / cplxblur=20.0 / qblur=0.5 / vbv_maxrate=38000 / vbv_bufsize=30000 / nal_hrd=vbr / filler=0 / ip_ratio=1.40 / pb_ratio=1.30 / aq=1:1.00Color range : LimitedColor primaries : BT.709Transfer characteristics : BT.709Matrix coefficients : BT.709
    Audio #1ID : 4352 (0x1100)Menu ID : 1 (0x1)Format : PCMFormat settings, Endianness : BigFormat settings, Sign : SignedMuxing mode : Blu-rayCodec ID : 128Duration : 2h 1mnBit rate mode : ConstantBit rate : 2 304 KbpsChannel(s) : 2 channelsChannel positions : Front: L RSampling rate : 48.0 KHzBit depth : 24 bitsStream size : 1.96 GiB (5%)
    Audio #2ID : 4353 (0x1101)Menu ID : 1 (0x1)Format : DTSFormat/Info : Digital Theater SystemsFormat profile : MA / CoreMode : 16Format settings, Endianness : BigMuxing mode : Stream extensionCodec ID : 134Duration : 2h 1mnBit rate mode : Variable / ConstantBit rate : Unknown / 1 509 KbpsChannel(s) : 6 channelsChannel positions : Front: L C R, Side: L R, LFESampling rate : 48.0 KHzFrame rate : 93.750 fps (512 spf)Bit depth : 24 bitsCompression mode : Lossless / Lossy
    TextID : 4608 (0x1200)Menu ID : 1 (0x1)Format : PGSCodec ID : 144
    Скриншоты

    Зеркало


    Цитата:
    Цитата:

    • Видео с с GBR-трансфера.
    • Испанская оригинальная дорожка с ESP-трансфера, т.к. на GBR присутствовал межканальный рассинхрон. TrueHD переделана в DTS-HD без потерь качества.
    • Русский звук и субтитры с этой раздачи.
    • Сохранены оригинальные чаптеры как на Blu-ray.
    Скачать .torrent

    Скачать торрент-файл бесплатно и на максимальной скорости!

    Как скачивать? · Что такое торрент? · Рейтинг и ограничения

    !ВНИМАНИЕ!
    Сайт не распространяет и не хранит электронные версии произведений, а занимается лишь лишь предоставлением доступа к создаваемому пользователями каталогу ссылок на торрент-файлы, которые содержат только списки хеш-сумм, убедительная просьба с жалобами обращаться напрямую к пользователю. Файлы для обмена на трекере предоставлены пользователями сайта, и администрация не несёт ответственности за их содержание. Просьба не заливать файлы, защищенные авторскими правами, а также файлы нелегального содержания!


    _________________
    [Профиль] [ЛС]
    Показать сообщения:    
    Ответить на тему

    Текущее время: Сегодня, в 08:18

    Часовой пояс: GMT + 2



    Вы не можете начинать темы
    Вы не можете отвечать на сообщения
    Вы не можете редактировать свои сообщения
    Вы не можете удалять свои сообщения
    Вы не можете голосовать в опросах
    Вы не можете прикреплять файлы к сообщениям
    Вы не можете скачивать файлы