BitTorrentTracker PerecTracker.org
BitTorrentTracker PerecTracker.org
    
Регистрация  ·  Вход
 
 · 
Забыли пароль?

  • Данбе: гордость превыше всего / Danbe, la tete haute (Бурлем Герджу / Bourlem Guerdjou) [2014, Франция, биографическая драма, экранизация, DVB] Original (Fre) + Sub (Rus, Eng, Fre, Deu)

    Ответить на тему
     
    Автор Сообщение

    rechyn

    Создавать темы 10-Мар-2016 07:32

           

    [Цитировать]

    Данбе: гордость превыше всего
    Danbé, la tête haute-Страна: Франция
    Жанр: биографическая драма, экранизация
    Год выпуска: 2014
    Продолжительность: 01:27:42Перевод: Субтитры (русский перевод К.Семенюк, Eclair Media)
    Cубтитры: русские, английские, французские, немецкие, нидерландские, румынские
    Оригинальная аудиодорожка: французский
    Режиссер: Бурлем Герджу / Bourlem Guerdjou
    В ролях: Татьяна Рохо / Tatiana Rojo (Massire), Аннабель Лангронн / Annabelle Lengronne (Aya 28 ans), Брюно Лоше / Bruno Lochet (Jeannot), Асса Силла / Assa Sylla (Aya 16 ans), Алексис Михалик / Alexis Michalik (Thomas), Салим Кешьюш / Salim Kechiouche (Ali), Эрик Каравака / Eric Caravaca (L'avocat), Солаль Форт / Solal Forte (Fred)
    Описание: по автобиографической книге Аи Сиссоко / Aya Cissoko в соавторстве с Мари Деплешен / Marie Desplechin "Данбе / Danbé" (2011), получившей престижную литературную премию Le Grand prix de l'héroïne Madame Figaro 2011.
    Ноябрь 1986 года. Айя Сиссоко, девочка родом из Мали, счастливо проводит свое детство в парижском квартале Менильмонтан. Однажды ночью ее отец и сестра погибают в криминальной перестрелке. Пока ее мать борется, чтобы получить компенсацию, Айя находит в боксе выход для своей страсти к жизни и в возрасте 28 лет завоевывает звание чемпиона Франции и мира в любительском боксе в полусреднем весе.
    Доп. информация: Hot Bird (13.0°E) TV5MONDE Europe DVB-S. Во время нефранцузской речи вшитые французские субтитры.
    Участник: Festival de la fiction TV de la Rochelle 2014.

    Качество видео: DVB
    Формат видео: TS
    Видео: MPEG Video 2, 720x576@1024x576 (16:9), 25 fps, ~3233 kbps avg, 0.312 bit/pixel
    Аудио: MPEG Audio 2, 2 ch, 48 kHz, 192 kbps - французский
    Формат субтитров: PGS

    MediaInfo

    GeneralID : 1 (0x1)Complete name : [apreder]Danbe_la_tete_haute(2014)DVB.tsFormat : MPEG-TSFile size : 2.21 GiBDuration : 1h 27mnOverall bit rate mode : VariableOverall bit rate : 3 605 KbpsMaximum Overall bit rate : 35.5 Mbps
    VideoID : 4113 (0x1011)Menu ID : 1 (0x1)Format : MPEG VideoFormat version : Version 2Format profile : Main@MainFormat settings, BVOP : YesFormat settings, Matrix : CustomFormat settings, GOP : VariableFormat settings, picture structure : FrameCodec ID : 2Duration : 1h 27mnBit rate mode : VariableBit rate : 3 233 KbpsWidth : 720 pixelsHeight : 576 pixelsDisplay aspect ratio : 16:9Frame rate : 25.000 fpsStandard : PALColor space : YUVChroma subsampling : 4:2:0Bit depth : 8 bitsScan type : InterlacedScan order : Top Field FirstCompression mode : LossyBits/(Pixel*Frame) : 0.312Time code of first frame : 00:00:00:00Time code source : Group of pictures headerGOP, Open/Closed : OpenGOP, Open/Closed of first frame : ClosedStream size : 1.98 GiB (90%)
    AudioID : 4352 (0x1100)Menu ID : 1 (0x1)Format : MPEG AudioFormat version : Version 1Format profile : Layer 2Mode : Joint stereoMode extension : Intensity Stereo + MS StereoCodec ID : 4Duration : 1h 27mnBit rate mode : ConstantBit rate : 192 KbpsChannel(s) : 2 channelsSampling rate : 48.0 KHzCompression mode : LossyStream size : 120 MiB (5%)Language : French
    Text #1ID : 4608 (0x1200)Menu ID : 1 (0x1)Format : PGSCodec ID : 144Duration : 1h 27mnDelay relative to video : 4s 960msLanguage : Russian
    Text #2ID : 4609 (0x1201)Menu ID : 1 (0x1)Format : PGSCodec ID : 144Duration : 1h 27mnDelay relative to video : 4s 760msLanguage : English
    Text #3ID : 4610 (0x1202)Menu ID : 1 (0x1)Format : PGSCodec ID : 144Language : French
    Text #4ID : 4611 (0x1203)Menu ID : 1 (0x1)Format : PGSCodec ID : 144Duration : 1h 27mnDelay relative to video : 4s 760msLanguage : German
    Text #5ID : 4612 (0x1204)Menu ID : 1 (0x1)Format : PGSCodec ID : 144Duration : 1h 27mnDelay relative to video : 4s 760msLanguage : Dutch
    Text #6ID : 4613 (0x1205)Menu ID : 1 (0x1)Format : PGSCodec ID : 144Delay relative to video : 5s 40msLanguage : Romanian

    Скриншот c названием фильма

    Скриншоты

    Резервные скриншоты


    -[2'955]
    Скачать .torrent

    Скачать торрент-файл бесплатно и на максимальной скорости!

    Как скачивать? · Что такое торрент? · Рейтинг и ограничения

    !ВНИМАНИЕ!
    Сайт не распространяет и не хранит электронные версии произведений, а занимается лишь лишь предоставлением доступа к создаваемому пользователями каталогу ссылок на торрент-файлы, которые содержат только списки хеш-сумм, убедительная просьба с жалобами обращаться напрямую к пользователю. Файлы для обмена на трекере предоставлены пользователями сайта, и администрация не несёт ответственности за их содержание. Просьба не заливать файлы, защищенные авторскими правами, а также файлы нелегального содержания!


    _________________
    [Профиль] [ЛС]
    Показать сообщения:    
    Ответить на тему

    Текущее время: Сегодня, в 04:15

    Часовой пояс: GMT + 2



    Вы не можете начинать темы
    Вы не можете отвечать на сообщения
    Вы не можете редактировать свои сообщения
    Вы не можете удалять свои сообщения
    Вы не можете голосовать в опросах
    Вы не можете прикреплять файлы к сообщениям
    Вы не можете скачивать файлы