BitTorrentTracker PerecTracker.org
BitTorrentTracker PerecTracker.org
    
Регистрация  ·  Вход
 
 · 
Забыли пароль?

  • Чудны дела твои, Господи! / Серии: 1-4 из 4 (Петр Амелин) [2016,детектив,экранизация, SATRip-AVC]

    Ответить на тему
     
    Автор Сообщение

    rechyn

    Создавать темы 09-Мар-2016 23:37

           

    [Цитировать]

    Чудны дела твои, Господи!
    --
    Год выпуска: 2016
    Производство: Россия, ООО "Свэлл Фильм"
    Жанр: детектив,экранизация
    Продолжительность: 00:43:00
    Субтитры: нет

    --
    Режиссёр: Петр Амелин
    --
    В ролях: Алексей Зубков, Эмилия Спивак, Сергей Шарифуллин, Ингрид Олеринская, Ольга Самошина, Дмитрий Сутырин, Елизавета Александрова, Дмитрий Быковский-Ромашов, Анна Донченко, Надежда Некрасова (II), Иван Бровин, Сергей Шкарбан, Андрей Павловец, Олег Петров (V), Валентина Нейморовец
    --
    Описание: Как только Андрей Ильич Боголюбов, по просьбе самого министра, вступает в должность директора музея в небольшом провинциальном городке, вокруг него начинают твориться странные дела. Бывшая директриса внезапно умирает прямо у него на глазах, ему прокалывают колеса, подбрасывают записки с угрозами, подозревают в попытках закрыть музей и даже пытаются убить! Становится очевидно: в музее происходит нечто необъяснимое. Боголюбову приходится взяться за расследование. А заодно разобраться в чувствах к бывшей жене, которая неожиданно и совсем некстати появляется на пороге его дома…
    --
    Все раздачи сериала

    --
    Качество: SATRip-AVC
    Формат: MKV
    Видео кодек: H.264
    Аудио кодек: AC3
    Видео: MPEG-4 AVC, 720х400,25fps,~1794 Кбит/сек,Bits/Pixel 0.222
    Аудио: AC3, 48 kHz, ~192 Kbps, 2 канала

    --

    MI

    Общее
    Уникальный идентификатор : 225676669502043178673073804112763412785 (0xA9C7BEDCA67B416E85362A4D285DE131)
    Полное имя : F:\ЧУДНЫ ДЕЛА ТВОИ, ГОСПОДИ!\Чудны дела твои, Господи!_01 серия rip by_Aleksan55.mkv
    Формат : Matroska
    Версия формата : Version 2
    Размер файла : 563 Мбайт
    Продолжительность : 43 м.
    Общий поток : 1794 Кбит/сек
    Дата кодирования : UTC 2016-03-05 11:26:15
    Программа кодирования : mkvmerge v7.8.0 ('River Man') 32bit built on Apr 3 2015 12:11:22
    Библиотека кодирования : libebml v1.3.1 + libmatroska v1.4.2
    Видео
    Идентификатор : 1
    Формат : AVC
    Формат/Информация : Advanced Video Codec
    Профиль формата : High@L4.1
    Параметр CABAC формата : Да
    Параметр ReFrames формата : 12 кадров
    Идентификатор кодека : V_MPEG4/ISO/AVC
    Продолжительность : 43 м.
    Битрейт : 1600 Кбит/сек
    Ширина : 720 пикселей
    Высота : 400 пикселей
    Соотношение сторон : 1,85:1
    Соотношение сторон в оригинале : 1,85:1
    Режим частоты кадров : Постоянный
    Частота кадров : 25,000 кадров/сек
    Цветовое пространство : YUV
    Субдискретизация насыщенности : 4:2:0
    Битовая глубина : 8 бит
    Тип развёртки : Прогрессивная
    Бит/(Пиксели*Кадры) : 0.222
    Размер потока : 491 Мбайт (87%)
    Библиотека кодирования : x264 core 146 r2538 121396c
    Настройки программы : cabac=1 / ref=12 / deblock=1:-2:-2 / analyse=0x3:0x113 / me=umh / subme=9 / psy=1 / psy_rd=1.00:0.15 / mixed_ref=1 / me_range=32 / chroma_me=1 / trellis=2 / 8x8dct=1 / cqm=0 / deadzone=21,11 / fast_pskip=1 / chroma_qp_offset=-3 / threads=6 / lookahead_threads=4 / sliced_threads=0 / nr=0 / decimate=1 / interlaced=0 / bluray_compat=0 / constrained_intra=0 / bframes=12 / b_pyramid=2 / b_adapt=2 / b_bias=0 / direct=3 / weightb=1 / open_gop=0 / weightp=2 / keyint=250 / keyint_min=25 / scenecut=40 / intra_refresh=0 / rc_lookahead=50 / rc=2pass / mbtree=1 / bitrate=1600 / ratetol=1.0 / qcomp=0.60 / qpmin=0 / qpmax=69 / qpstep=4 / cplxblur=20.0 / qblur=0.5 / ip_ratio=1.40 / aq=1:1.00
    Default : Да
    Forced : Нет
    Цветовой диапазон : Limited
    Основные цвета : BT.601 PAL
    Характеристики трансфера : BT.470 System B, BT.470 System G
    Коэффициенты матрицы : BT.601
    Аудио
    Идентификатор : 2
    Формат : AC-3
    Формат/Информация : Audio Coding 3
    Расширение режима : CM (complete main)
    Параметр Endianness формата : Big
    Идентификатор кодека : A_AC3
    Продолжительность : 43 м.
    Вид битрейта : Постоянный
    Битрейт : 192 Кбит/сек
    Каналы : 2 канала
    Расположение каналов : Front: L R
    Частота : 48,0 КГц
    Метод сжатия : С потерями
    Размер потока : 60,2 Мбайт (11%)
    Default : Да
    Forced : Нет

    Скриншоты

    --Рекламы нет.
    Скачать .torrent

    Скачать торрент-файл бесплатно и на максимальной скорости!

    Как скачивать? · Что такое торрент? · Рейтинг и ограничения

    !ВНИМАНИЕ!
    Сайт не распространяет и не хранит электронные версии произведений, а занимается лишь лишь предоставлением доступа к создаваемому пользователями каталогу ссылок на торрент-файлы, которые содержат только списки хеш-сумм, убедительная просьба с жалобами обращаться напрямую к пользователю. Файлы для обмена на трекере предоставлены пользователями сайта, и администрация не несёт ответственности за их содержание. Просьба не заливать файлы, защищенные авторскими правами, а также файлы нелегального содержания!


    _________________
    [Профиль] [ЛС]
    Показать сообщения:    
    Ответить на тему

    Текущее время: Сегодня, в 18:23

    Часовой пояс: GMT + 2



    Вы не можете начинать темы
    Вы не можете отвечать на сообщения
    Вы не можете редактировать свои сообщения
    Вы не можете удалять свои сообщения
    Вы не можете голосовать в опросах
    Вы не можете прикреплять файлы к сообщениям
    Вы не можете скачивать файлы