BitTorrentTracker PerecTracker.org
BitTorrentTracker PerecTracker.org
    
Регистрация  ·  Вход
 
 · 
Забыли пароль?

  • Майя / Серии: 1-12 из 12 (Душан Глигоров) [2015, Россия, Детектив, WEBRip]

    Ответить на тему
     
    Автор Сообщение

    rechyn

    Создавать темы 09-Мар-2016 23:33

           

    [Цитировать]

    Майя
    Год выпуска: 2015
    Производство: Россия, «Всемирные Русские Студии»
    Жанр: Детектив
    Продолжительность: ~0:47:00 серия
    Субтитры: нет
    Режиссер: Душан Глигоров
    В ролях: Мария Белоненко, Елена Оболенская, Александр Вершинин, Мария Большова, Наталья Коренная, Алексей Измайлов, Стас Румянцев, Валерий Новиков, Анфиса Черных, Татьяна Косач-Брындина, Александр Касаткин (II), Дарья Сивова, Сергей Петров (II), Алексей Назаров (IV)
    Описание: В пятнадцать лет Майя переживает тяжелую психологическую травму: на ее глазах убивают отца. На этой почве у матери Майи развивается мания преследования, и она с дочерью без конца переезжает с места на место. И без того замкнутый подросток, Майя, меняя по нескольку школ за год, окончательно утрачивает контакт со сверстниками. Приехав в новый город, Майя вновь становится свидетелем криминальных событий: на школьном дворе находят окровавленные обрывки одежды, принадлежавшие неформальной «королеве» школы Кристине. В руках Майи случайно оказывается важная улика – мобильный телефон Кристины, который может вывести на след возможного убийцы или похитителя. Первое знакомство с друзьями Кристины показывает, что «королева» была расчетливой интриганкой, которая многим давала повод свести с ней счеты. В то время как полиция не проявляет особого рвения в работе, Майя, мечтающая стать детективом, чтобы разыскать убийцу своего отца, начинает собственное расследование.
    Все раздачи сериала: => Майя
    Семпл
    Качество: HDTVRip
    Формат: AVI
    Видео кодек: XviD
    Аудио кодек: АС-3
    Видео: 720x400 (1.80:1), 25 fps, XviD build 50 ~1550 kbps avg, 0.214 bit/pixel
    Аудио: 48 kHz, AC3 Dolby Digital, 2/0 (L,R) ch, ~192.00 kbps avg
    Сторонней рекламы нет!

    MediaInfo

    General
    Complete name : Y:\раздачи\Mayya 2015.WEB-DLRip.RG.Russkie.serialy.&.Files-x.Mayya 2015.WEB-DLRip.RG.Russkie.serialy.&.Files-x.avi
    Format : AVI
    Format/Info : Audio Video Interleave
    File size : 600 MiB
    Duration : 47mn 40s
    Overall bit rate : 1 760 Kbps
    Writing application : VirtualDubMod 1.5.10.3 | www.virtualdub-fr.org || (build 2550/release)
    Writing library : VirtualDubMod build 2550/release
    Video
    ID : 0
    Format : MPEG-4 Visual
    Format profile : Advanced Simple@L5
    Format settings, BVOP : 1
    Format settings, QPel : No
    Format settings, GMC : No warppoints
    Format settings, Matrix : Custom
    Codec ID : XVID
    Codec ID/Hint : XviD
    Duration : 47mn 40s
    Bit rate : 1 558 Kbps
    Width : 720 pixels
    Height : 400 pixels
    Display aspect ratio : 16:9
    Frame rate : 25.000 fps
    Color space : YUV
    Chroma subsampling : 4:2:0
    Bit depth : 8 bits
    Scan type : Progressive
    Compression mode : Lossy
    Bits/(Pixel*Frame) : 0.216
    Stream size : 531 MiB (89%)
    Writing library : XviD 73
    Audio
    ID : 1
    Format : AC-3
    Format/Info : Audio Coding 3
    Mode extension : CM (complete main)
    Format settings, Endianness : Big
    Codec ID : 2000
    Duration : 47mn 39s
    Bit rate mode : Constant
    Bit rate : 192 Kbps
    Channel(s) : 2 channels
    Channel positions : Front: L R
    Sampling rate : 48.0 KHz
    Compression mode : Lossy
    Stream size : 65.5 MiB (11%)
    Alignment : Split accross interleaves
    Interleave, duration : 40 ms (1.00 video frame)
    Interleave, preload duratio : 500 ms
    Рип:
    Релиз группа:
    Отдельная громадная благодарность Media-Art-Club за созданный постер к раздаче.

    Скриншоты


    Скачать .torrent

    Скачать торрент-файл бесплатно и на максимальной скорости!

    Как скачивать? · Что такое торрент? · Рейтинг и ограничения

    !ВНИМАНИЕ!
    Сайт не распространяет и не хранит электронные версии произведений, а занимается лишь лишь предоставлением доступа к создаваемому пользователями каталогу ссылок на торрент-файлы, которые содержат только списки хеш-сумм, убедительная просьба с жалобами обращаться напрямую к пользователю. Файлы для обмена на трекере предоставлены пользователями сайта, и администрация не несёт ответственности за их содержание. Просьба не заливать файлы, защищенные авторскими правами, а также файлы нелегального содержания!


    _________________
    [Профиль] [ЛС]
    Показать сообщения:    
    Ответить на тему

    Текущее время: Сегодня, в 05:52

    Часовой пояс: GMT + 2



    Вы не можете начинать темы
    Вы не можете отвечать на сообщения
    Вы не можете редактировать свои сообщения
    Вы не можете удалять свои сообщения
    Вы не можете голосовать в опросах
    Вы не можете прикреплять файлы к сообщениям
    Вы не можете скачивать файлы