BitTorrentTracker PerecTracker.org
BitTorrentTracker PerecTracker.org
    
Регистрация  ·  Вход
 
 · 
Забыли пароль?

  • Дэвид Суше. Кто придумал Пуаро (Светлана Музыкова) [2013 г., Документальный, телеканал ТВ Центр, TVRip]

    Ответить на тему
     
    Автор Сообщение

    Columb

    Создавать темы 10-Янв-2014 12:01

           

    [Цитировать]

    Дэвид Суше. Кто придумал Пуаро (Светлана Музыкова)
    Год выпуска: 2013
    Страна: Россия
    Жанр: Документальный
    Продолжительность: 00:38:42
    Перевод: Не требуется
    Автор Сценария: Светлана Музыкова
    Режиссер: Филипп Сурков
    Описание: Документальный фильм рассказывает об истории возникновения романов Агаты Кристи о великом сыщике Эркюле Пуаро, а также о знаменитых экранизациях этих романов. В фильме представлены интервью самой писательницы и актера Дэвида Суше. Этим документальным фильмом завершился показ в России английского сериала Agatha Christie's Poirot.-Качество: TVRip
    Формат: AVI
    Видео кодек: XviD
    Аудио кодек: MP3
    Видео: 576x432 25.00 fps ~1872 kbps avg, 0.301 bit/pixel
    Аудио: MPEG Audio Layer 3 48000 Hz stereo 192 kbps

    MediaInfo

    Общее
    Полное имя : C:\Дэвид Суше. Кто придумал Пуаро (2013).avi
    Формат : AVI
    Формат/Информация : Audio Video Interleave
    Размер файла : 574 Мбайт
    Продолжительность : 38 м.
    Общий поток : 2074 Кбит/сек
    Программа кодирования : VirtualDubMod 1.5.10.3 (build 2550/release)
    Библиотека кодирования : VirtualDubMod build 2550/release
    Примечание : release by Opeyron
    Видео
    Идентификатор : 0
    Формат : MPEG-4 Visual
    Профиль формата : Advanced Simple@L5
    Параметр BVOP формата : 1
    Параметр QPel формата : Нет
    Параметр GMC формата : Без точки перехода
    Параметр матрицы формата : Default (H.263)
    Режим смешивания : Сжатый битовый поток
    Идентификатор кодека : XVID
    Идентификатор кодека/Подсказка : XviD
    Продолжительность : 38 м.
    Битрейт : 1872 Кбит/сек
    Ширина : 576 пикс.
    Высота : 432 пикс.
    Соотношение сторон : 4:3
    Частота кадров : 25,000 кадр/сек
    Цветовое пространство : YUV
    Подвыборка цветности : 4:2:0
    Битовая глубина : 8 бит
    Тип развёртки : Прогрессивная
    Метод сжатия : С потерями
    Бит/(Пиксели*Кадры) : 0.301
    Размер потока : 518 Мбайт (90%)
    Библиотека кодирования : XviD 1.1.2 (UTC 2006-11-01)
    Аудио
    Идентификатор : 1
    Формат : MPEG Audio
    Версия формата : Version 1
    Профиль формата : Layer 3
    Идентификатор кодека : 55
    Идентификатор кодека/Подсказка : MP3
    Продолжительность : 38 м.
    Вид битрейта : Постоянный
    Битрейт : 192 Кбит/сек
    Канал(ы) : 2 канала(ов)
    Частота : 48,0 КГц
    Метод сжатия : С потерями
    Задержка видео : 24 мс.
    Размер потока : 53,2 Мбайт (9%)
    Выравнивание : Соединение по промежуткам
    Продолжительность промежутка : 40 мс. (1,00 видеокадр)
    Время предзагрузки промежутка : 504 ms
    Библиотека кодирования : LAME3.96.1

    Скриншоты

    -
    Скачать .torrent

    Скачать торрент-файл бесплатно и на максимальной скорости!

    Как скачивать? · Что такое торрент? · Рейтинг и ограничения

    !ВНИМАНИЕ!
    Сайт не распространяет и не хранит электронные версии произведений, а занимается лишь лишь предоставлением доступа к создаваемому пользователями каталогу ссылок на торрент-файлы, которые содержат только списки хеш-сумм, убедительная просьба с жалобами обращаться напрямую к пользователю. Файлы для обмена на трекере предоставлены пользователями сайта, и администрация не несёт ответственности за их содержание. Просьба не заливать файлы, защищенные авторскими правами, а также файлы нелегального содержания!

    [Профиль] [ЛС]
    Показать сообщения:    
    Ответить на тему

    Текущее время: Сегодня, в 00:28

    Часовой пояс: GMT + 2



    Вы не можете начинать темы
    Вы не можете отвечать на сообщения
    Вы не можете редактировать свои сообщения
    Вы не можете удалять свои сообщения
    Вы не можете голосовать в опросах
    Вы не можете прикреплять файлы к сообщениям
    Вы не можете скачивать файлы