BitTorrentTracker PerecTracker.org
BitTorrentTracker PerecTracker.org
    
Регистрация  ·  Вход
 
 · 
Забыли пароль?

  • История одного отката / Серии: 1-20 из 20 (Евгений Паламарчук) [2015-16, Детектив, драма, криминал, WEBRip]

    Ответить на тему
     
    Автор Сообщение

    rechyn

    Создавать темы 09-Мар-2016 22:54

           

    [Цитировать]

    История одного отката
    Год выпуска: 2015-2016
    Производство: 7 канал, Казахстан
    Жанр: Детектив, драма, криминал
    Продолжительность: 00:51:00
    Субтитры: Нет
    Режиссёр: Евгений Паламарчук
    В ролях: Саят Исембаев, Азиз Бейшеналиев, Гульнара Дусматова, Жанар Макашева, Марат Абишев, Алдабек Шалбаев
    Описание: Сериал рассказывает о людях, призванных бороться с крупнейшей проблемой нашего общества – коррупцией, которая стала чумой современного мира. Каждому из героев истории приходилось встречаться с последствиями безжалостной коррупции, и они готовы сплотиться вокруг всеобщей проблемы. Благочестивый государственный служащий, потерявший когда-то родного брата, убитого от рук коррупционеров, открывает секретный отдел, в который приглашает лучших людей из разных сфер.-Доп. информация: Реклама отсутствует!-Все раздачи сериала: http://perectracker.org/tracker.php?f=9&nm=И...ия%одного%отката
    Сэмпл: https://mega.nz/#!5hd3hQob!wa_vrNWn0VP_20Jf2ffQzNMhPBCsPhq_3g7LJsoMFNk
    Качество: WEBRip
    Формат: AVI
    Видео кодек: XviD
    Аудио кодек: MP3
    Видео: 720x400, 25 fps, XviD, ~1550 kbps, 0.229 bit/pixel
    Аудио: 48 kHz, MPEG Layer 3, 2 ch, 192 kbps

    MI

    Общее
    Полное имя : I:\001\История одного отката (2015-2016) WEB-DLRip\История одного отката.(01.seriya).2015.XviD.WEB-DLRip.by.simka.avi
    Формат : AVI
    Формат/Информация : Audio Video Interleave
    Размер файла : 651 Мбайт
    Продолжительность : 51 м.
    Общий поток : 1761 Кбит/сек
    Программа кодирования : VirtualDubMod 1.5.10.3 | www.virtualdub-fr.org || (build 2550/release)
    Библиотека кодирования : VirtualDubMod build 2550/release
    Видео
    Идентификатор : 0
    Формат : MPEG-4 Visual
    Профиль формата : Advanced Simple@L5
    Параметр BVOP формата : 1
    Параметр QPel формата : Нет
    Параметр GMC формата : Без точки перехода
    Параметр матрицы формата : Default (MPEG)
    Идентификатор кодека : XVID
    Идентификатор кодека/Подсказка : XviD
    Продолжительность : 51 м.
    Битрейт : 1559 Кбит/сек
    Ширина : 720 пикселей
    Высота : 400 пикселей
    Соотношение сторон : 16:9
    Частота кадров : 25,000 кадров/сек
    Цветовое пространство : YUV
    Субдискретизация насыщенности : 4:2:0
    Битовая глубина : 8 бит
    Тип развёртки : Прогрессивная
    Метод сжатия : С потерями
    Бит/(Пиксели*Кадры) : 0.217
    Размер потока : 576 Мбайт (89%)
    Библиотека кодирования : XviD 1.2.1 (UTC 2008-12-04)
    Аудио
    Идентификатор : 1
    Формат : MPEG Audio
    Версия формата : Version 1
    Профиль формата : Layer 3
    Режим : Joint stereo
    Расширение режима : MS Stereo
    Идентификатор кодека : 55
    Идентификатор кодека/Подсказка : MP3
    Продолжительность : 51 м.
    Вид битрейта : Постоянный
    Битрейт : 192 Кбит/сек
    Каналы : 2 канала
    Частота : 44,1 КГц
    Метод сжатия : С потерями
    Размер потока : 71,0 Мбайт (11%)
    Выравнивание : Разделение по промежуткам
    Продолжительность промежутка : 40 мс. (1,00 видеокадр)
    Время предзагрузки промежутка : 500 мс.
    Библиотека кодирования : LAME3.99r
    Настройки программы : -m j -V 4 -q 2 -lowpass 18.6 -b 192

    Скриншоты

    Скачать .torrent

    Скачать торрент-файл бесплатно и на максимальной скорости!

    Как скачивать? · Что такое торрент? · Рейтинг и ограничения

    !ВНИМАНИЕ!
    Сайт не распространяет и не хранит электронные версии произведений, а занимается лишь лишь предоставлением доступа к создаваемому пользователями каталогу ссылок на торрент-файлы, которые содержат только списки хеш-сумм, убедительная просьба с жалобами обращаться напрямую к пользователю. Файлы для обмена на трекере предоставлены пользователями сайта, и администрация не несёт ответственности за их содержание. Просьба не заливать файлы, защищенные авторскими правами, а также файлы нелегального содержания!


    _________________
    [Профиль] [ЛС]
    Показать сообщения:    
    Ответить на тему

    Текущее время: Сегодня, в 10:52

    Часовой пояс: GMT + 2



    Вы не можете начинать темы
    Вы не можете отвечать на сообщения
    Вы не можете редактировать свои сообщения
    Вы не можете удалять свои сообщения
    Вы не можете голосовать в опросах
    Вы не можете прикреплять файлы к сообщениям
    Вы не можете скачивать файлы