BitTorrentTracker PerecTracker.org
BitTorrentTracker PerecTracker.org
    
Регистрация  ·  Вход
 
 · 
Забыли пароль?

  • Высоцкий. Четыре часа настоящей жизни / Серии: 1-4 из 4 (Пётр Буслов) [2012, драма, биография, BDRip 720p]

    Ответить на тему
     
    Автор Сообщение

    rechyn

    Создавать темы 09-Мар-2016 22:40

           

    [Цитировать]

    Высоцкий. Четыре часа настоящей жизни
    Год выпуска: 2012
    Производство: Monumental Pictures
    Жанр: драма, биография
    Продолжительность: ~00:51:00
    Субтитры: нет
    Режиссёр: Пётр Буслов
    В ролях: Оксана Акиньшина, Сергей Безруков, Андрей Смоляков, Иван Ургант, Андрей Панин, Дмитрий Астрахан, Анна Ардова, Владимир Ильин, Максим Леонидов, Сергей Шакуров
    Описание: Фильм рассказывает об одном из наиболее драматичных периодов жизни Владимира Высоцкого. Мы застаем героя на пике известности. В конце 70-х Высоцкий — самый знаменитый человек в СССР, кумир миллионов. Но его силы на исходе. Он измотан, он больше не ощущает свой дар, он не может писать стихи…
    Все раздачи сериала | Сэмпл
    Качество: BDRip 720p
    Формат: MKV
    Видео кодек: H.264
    Аудио кодек: AC3
    Видео: MPEG-4 AVC/H.264 / 4957 kbps / 1280x544 / 24.000 fps / 0.297 bit/pixel
    Аудио: AC3 / 6 ch / 640 kbps / 48 kHz
    Rip by: kaspr

    MI

    General
    Complete name : J:\Torrents\Vysotskiy.4.chasa.zhizni.2012.x264.BDRip.(720p)_kaspr.seriiya.mkv
    Format : Matroska
    Format version : Version 2
    File size : 1.95 GiB
    Duration : 50mn 15s
    Overall bit rate : 5 565 Kbps
    Writing application : libmatroska 1.3.0
    Writing library : SolveigMM Matroska Muxer Version 1.0.1208.20
    Video
    ID : 1
    Format : AVC
    Format/Info : Advanced Video Codec
    Format profile : High@L4.1
    Format settings, CABAC : Yes
    Format settings, ReFrames : 8 frames
    Codec ID : V_MPEG4/ISO/AVC
    Duration : 50mn 15s
    Bit rate : 4 957 Kbps
    Width : 1 280 pixels
    Height : 544 pixels
    Display aspect ratio : 2.35:1
    Frame rate mode : Constant
    Frame rate : 24.000 fps
    Color space : YUV
    Chroma subsampling : 4:2:0
    Bit depth : 8 bits
    Scan type : Progressive
    Bits/(Pixel*Frame) : 0.297
    Stream size : 1.69 GiB (87%)
    Writing library : x264 core 129 r2245 bc13772
    Encoding settings : cabac=1 / ref=8 / deblock=1:-3:-3 / analyse=0x3:0x133 / me=umh / subme=10 / psy=1 / psy_rd=1.00:0.10 / mixed_ref=1 / me_range=48 / chroma_me=1 / trellis=2 / 8x8dct=1 / cqm=0 / deadzone=21,11 / fast_pskip=1 / chroma_qp_offset=-3 / threads=12 / lookahead_threads=2 / sliced_threads=0 / nr=0 / decimate=1 / interlaced=0 / bluray_compat=0 / constrained_intra=0 / bframes=6 / b_pyramid=2 / b_adapt=2 / b_bias=0 / direct=3 / weightb=1 / open_gop=0 / weightp=2 / keyint=240 / keyint_min=22 / scenecut=40 / intra_refresh=0 / rc_lookahead=40 / rc=2pass / mbtree=1 / bitrate=4957 / ratetol=1.0 / qcomp=0.60 / qpmin=0 / qpmax=69 / qpstep=4 / cplxblur=20.0 / qblur=0.5 / ip_ratio=1.40 / aq=1:1.00
    Language : English
    Default : No
    Forced : No
    Audio
    ID : 2
    Format : AC-3
    Format/Info : Audio Coding 3
    Mode extension : CM (complete main)
    Format settings, Endianness : Big
    Codec ID : A_AC3
    Duration : 50mn 15s
    Bit rate mode : Constant
    Bit rate : 640 Kbps
    Channel(s) : 6 channels
    Channel positions : Front: L C R, Side: L R, LFE
    Sampling rate : 48.0 KHz
    Frame rate : 31.250 fps (1536 spf)
    Bit depth : bit0
    Compression mode : Lossy
    Stream size : 230 MiB (12%)
    Language : English
    Default : No
    Forced : No

    Скриншоты

    Скачать .torrent

    Скачать торрент-файл бесплатно и на максимальной скорости!

    Как скачивать? · Что такое торрент? · Рейтинг и ограничения

    !ВНИМАНИЕ!
    Сайт не распространяет и не хранит электронные версии произведений, а занимается лишь лишь предоставлением доступа к создаваемому пользователями каталогу ссылок на торрент-файлы, которые содержат только списки хеш-сумм, убедительная просьба с жалобами обращаться напрямую к пользователю. Файлы для обмена на трекере предоставлены пользователями сайта, и администрация не несёт ответственности за их содержание. Просьба не заливать файлы, защищенные авторскими правами, а также файлы нелегального содержания!


    _________________
    [Профиль] [ЛС]
    Показать сообщения:    
    Ответить на тему

    Текущее время: Сегодня, в 10:20

    Часовой пояс: GMT + 2



    Вы не можете начинать темы
    Вы не можете отвечать на сообщения
    Вы не можете редактировать свои сообщения
    Вы не можете удалять свои сообщения
    Вы не можете голосовать в опросах
    Вы не можете прикреплять файлы к сообщениям
    Вы не можете скачивать файлы