BitTorrentTracker PerecTracker.org
BitTorrentTracker PerecTracker.org
    
Регистрация  ·  Вход
 
 · 
Забыли пароль?

  • Метод / Сезон: 1 / Серии: 1-16 из 16 (Юрий Быков) [2015, триллер, криминал, драма, DVDRip]

    Ответить на тему
     
    Автор Сообщение

    rechyn

    Создавать темы 09-Мар-2016 22:37

           

    [Цитировать]

    Метод
    Год выпуска: 2015
    Производство: «Среда»
    Жанр: триллер, криминал, драма
    Продолжительность: серия ~53 мин.
    Субтитры: Отсутствуют
    Режиссёр: Юрий Быков
    В ролях: Константин Хабенский, Паулина Андреева, Виталий Кищенко, Александр Цекало, Екатерина Дубакина, Александр Петров Евгения Симонова, Тимофей Трибунцев, Игорь Савочкин, Алексей Серебряков, Юрий Колокольников, Юрий Быков, Ян Цапник
    Описание: Главный герой — Родион Меглин — загадочная и неординарная личность, следователь высочайшего уровня, который раскрывает самые сложные убийства. Он привык работать в одиночку, не раскрывая секреты своего метода.
    Выпускница юрфака Есеня получает направление в отделение полиции, в котором служит Меглин, и становится его стажером. У девушки есть личные мотивы для работы с прославленным следователем — мать Есени убили, а отец скрывает важные детали произошедшего, но она не оставляет надежды выйти на след убийцы.
    Работа с Меглиным становится для Есени тяжелым испытанием. Профессиональные успехи и странное поведение учителя заставляют девушку задуматься: если Родион так тонко чувствует маньяков и может предсказать их действия, не является ли он сам одним из них?
    Сэмпл: http://multi-up.com/1092253
    Все раздачи сериала
    Качество: DVDRip
    Формат: AVI
    Видео кодек: XviD
    Аудио кодек: AC3
    Видео: 704x400 (16:9), 25 fps, XviD build 73 ~1732 kbps avg, 0.246 bit/pixel
    Аудио: 48 kHz, AC3, 2 ch, ~192.00 kbps avg

    MI

    General
    Complete name : F:\Video\Сериалы\Metod.2015.DVDRip.avi
    Format : AVI
    Format/Info : Audio Video Interleave
    File size : 654 MiB
    Duration : 47mn 16s
    Overall bit rate : 1 934 Kbps
    Writing application : VirtualDubMod 1.5.10.3 | www.virtualdub-fr.org || (build 2550/release)
    Writing library : VirtualDubMod build 2550/release
    Video
    ID : 0
    Format : MPEG-4 Visual
    Format profile : Advanced Simple@L5
    Format settings, BVOP : 1
    Format settings, QPel : No
    Format settings, GMC : No warppoints
    Format settings, Matrix : Custom
    Codec ID : XVID
    Codec ID/Hint : XviD
    Duration : 47mn 16s
    Bit rate : 1 732 Kbps
    Width : 704 pixels
    Height : 400 pixels
    Display aspect ratio : 16:9
    Frame rate : 25.000 fps
    Color space : YUV
    Chroma subsampling : 4:2:0
    Bit depth : 8 bits
    Scan type : Progressive
    Compression mode : Lossy
    Bits/(Pixel*Frame) : 0.246
    Stream size : 586 MiB (90%)
    Writing library : XviD 73
    Audio
    ID : 1
    Format : AC-3
    Format/Info : Audio Coding 3
    Mode extension : CM (complete main)
    Format settings, Endianness : Big
    Codec ID : 2000
    Duration : 47mn 15s
    Bit rate mode : Constant
    Bit rate : 192 Kbps
    Channel(s) : 2 channels
    Channel positions : Front: L R
    Sampling rate : 48.0 KHz
    Frame rate : 31.250 fps (1536 spf)
    Compression mode : Lossy
    Stream size : 64.9 MiB (10%)
    Alignment : Split accross interleaves
    Interleave, duration : 40 ms (1.00 video frame)
    Interleave, preload duratio : 500 ms

    Скриншоты

    Скачать .torrent

    Скачать торрент-файл бесплатно и на максимальной скорости!

    Как скачивать? · Что такое торрент? · Рейтинг и ограничения

    !ВНИМАНИЕ!
    Сайт не распространяет и не хранит электронные версии произведений, а занимается лишь лишь предоставлением доступа к создаваемому пользователями каталогу ссылок на торрент-файлы, которые содержат только списки хеш-сумм, убедительная просьба с жалобами обращаться напрямую к пользователю. Файлы для обмена на трекере предоставлены пользователями сайта, и администрация не несёт ответственности за их содержание. Просьба не заливать файлы, защищенные авторскими правами, а также файлы нелегального содержания!


    _________________
    [Профиль] [ЛС]
    Показать сообщения:    
    Ответить на тему

    Текущее время: Сегодня, в 08:55

    Часовой пояс: GMT + 2



    Вы не можете начинать темы
    Вы не можете отвечать на сообщения
    Вы не можете редактировать свои сообщения
    Вы не можете удалять свои сообщения
    Вы не можете голосовать в опросах
    Вы не можете прикреплять файлы к сообщениям
    Вы не можете скачивать файлы