BitTorrentTracker PerecTracker.org
BitTorrentTracker PerecTracker.org
    
Регистрация  ·  Вход
 
 · 
Забыли пароль?

  • Красная вдова / Серии: 1-8 из 8 (Игорь Штернберг, Алексей Чистиков) [2014, Криминальная драма, HDTVRip]

    Ответить на тему
     
    Автор Сообщение

    rechyn

    Создавать темы 09-Мар-2016 22:34

           

    [Цитировать]

    Красная вдоваГод выпуска: 2014
    Производство: Россия, «ВИМ СТУДИО»
    Жанр: Криминальная драма
    Продолжительность: 00:51:00
    Субтитров нет.
    Режиссёр: Игорь Штернберг, Алексей Чистиков
    В ролях: Виктория Толстоганова, Евгений Сидихин, Владимир Юматов, Степан Коршунов, Эдуард Чекмазов, Елена Ручкина, Игорь Штернберг, Карина Зверева, Максим Ковалевский, Эрик Гришин
    Описание: Остросюжетная криминальная сага о женщине, вынужденной пойти на всё ради счастья и благополучия своей семьи. Главная героиня сериала Полина — домохозяйка, чье счастье разрушается в один миг: преступники на глазах сына убивают ее мужа, а брат попадает в тюрьму. Выясняется, что оба участвовали в контрабанде наркотиков и перешли дорогу опасному человеку. На женщину сваливаются проблемы семьи, шантаж со стороны кредиторов, а также бизнес супруга, оказавшийся незаконным. Героине ничего не остается, кроме как найти в себе силы и возглавить преступный бизнес, параллельно разбираясь в том, кто и за что убил ее мужа.
    Все раздачи сериала
    Сэмпл
    Качество: HDTVRip
    Формат: AVI
    Видео кодек: XviD
    Аудио кодек: AC3
    Видео: 720x400 (1.80:1), 25 fps, XviD build 73 ~1565 kbps avg, 0.22 bit/pixel
    Аудио: 48 kHz, AC3 Dolby Digital, 2/0 (L,R) ch, ~192.00 kbps avg

    MI

    General
    Complete name : Y:\раздачи\Vdova.2014.HDTVRip.Files-x.Vdova.2014.HDTVRip.Files-x.avi
    Format : AVI
    Format/Info : Audio Video Interleave
    File size : 650 MiB
    Duration : 51mn 39s
    Overall bit rate : 1 758 Kbps
    Writing application : VirtualDubMod 1.5.10.3 | www.virtualdub-fr.org || (build 2550/release)
    Writing library : VirtualDubMod build 2550/release
    Video
    ID : 0
    Format : MPEG-4 Visual
    Format profile : Advanced Simple@L5
    Format settings, BVOP : 1
    Format settings, QPel : No
    Format settings, GMC : No warppoints
    Format settings, Matrix : Custom
    Codec ID : XVID
    Codec ID/Hint : XviD
    Duration : 51mn 39s
    Bit rate : 1 557 Kbps
    Width : 720 pixels
    Height : 400 pixels
    Display aspect ratio : 16:9
    Frame rate : 25.000 fps
    Color space : YUV
    Chroma subsampling : 4:2:0
    Bit depth : 8 bits
    Scan type : Progressive
    Compression mode : Lossy
    Bits/(Pixel*Frame) : 0.216
    Stream size : 575 MiB (89%)
    Writing library : XviD 73
    Audio
    ID : 1
    Format : AC-3
    Format/Info : Audio Coding 3
    Mode extension : CM (complete main)
    Format settings, Endianness : Big
    Codec ID : 2000
    Duration : 51mn 39s
    Bit rate mode : Constant
    Bit rate : 192 Kbps
    Channel(s) : 2 channels
    Channel positions : Front: L R
    Sampling rate : 48.0 KHz
    Compression mode : Lossy
    Stream size : 70.9 MiB (11%)
    Alignment : Split accross interleaves
    Interleave, duration : 40 ms (1.00 video frame)
    Interleave, preload duratio : 500 ms

    Скриншоты

    Скачать .torrent

    Скачать торрент-файл бесплатно и на максимальной скорости!

    Как скачивать? · Что такое торрент? · Рейтинг и ограничения

    !ВНИМАНИЕ!
    Сайт не распространяет и не хранит электронные версии произведений, а занимается лишь лишь предоставлением доступа к создаваемому пользователями каталогу ссылок на торрент-файлы, которые содержат только списки хеш-сумм, убедительная просьба с жалобами обращаться напрямую к пользователю. Файлы для обмена на трекере предоставлены пользователями сайта, и администрация не несёт ответственности за их содержание. Просьба не заливать файлы, защищенные авторскими правами, а также файлы нелегального содержания!


    _________________
    [Профиль] [ЛС]
    Показать сообщения:    
    Ответить на тему

    Текущее время: Сегодня, в 22:35

    Часовой пояс: GMT + 2



    Вы не можете начинать темы
    Вы не можете отвечать на сообщения
    Вы не можете редактировать свои сообщения
    Вы не можете удалять свои сообщения
    Вы не можете голосовать в опросах
    Вы не можете прикреплять файлы к сообщениям
    Вы не можете скачивать файлы