BitTorrentTracker PerecTracker.org
BitTorrentTracker PerecTracker.org
    
Регистрация  ·  Вход
 
 · 
Забыли пароль?

  • Свадьба по обмену (Дмитрий Грачев) [2011, романтическая комедия, BDRip]

    Ответить на тему
     
    Автор Сообщение

    rechyn

    Создавать темы 09-Мар-2016 20:15

           

    [Цитировать]

    Свадьба по обменуЖанр: романтическая комедия
    Год выпуска: 2011
    Продолжительность: 01:29:03
    Режиссёр: Дмитрий Грачев
    В ролях: Екатерина Вилкова, Максим Матвеев, Фёдор Бондарчук, Ксения Каталымова, Мария Кожевникова, Арарат Кещян, Андрей Малахов, Александр Самойленко, Казимир Лиске, Инга Оболдина, Ольга Хохлова, Евгения Бордзиловская, Владислав Дунаев, Владислав Жёлтиков, Константин Чепурин, Иван Распопов, Татьяна Плетнёва, Евгений Харланов, Евгений Гусев, Виктор Балабанов, Иван Куколев, Ольга Прихудайлова, Кирилл Просвиренников, Анастасия Лазарева, Анастасия Бондаренко, Сергей Шайдаков
    Описание: Супермодель Соня мечтает о тихом семейном счастье с Русланом, самовлюбленным телеведущим, но тот не разделяет ее мечты. В отместку Соня решает выйти за обычного банковского клерка. Первым на глаза ей попадается Саша, который тоже хочет проучить девушку Кристину, не отвечающую ему взаимностью. Уже выйдя из ЗАГСа, Саша и Соня понимают, что погорячились. Но дело сделано и им приходится изображать счастливую пару, скрывая взаимную неприязнь...
    Доп. информация:

    Релиз:

    Сэмпл:

    Качество видео: BDRip [Исходник: HDCLUB / Blu-Ray / 1080i]
    Формат видео: AVI
    Видео: 704x384 (1.83:1), 25.000 fps, XviD build 72 ~1874 kbps avg, 0.28 bit/pixel
    Аудио: 48 kHz, AC3 Dolby Digital, 3/2 (L,C,R,l,r) + LFE ch, ~448 kbps avg

    MediaInfo

    Общее
    Полное имя : A:\Svadba.po.obmenu.2011.RUS.BDRip.XviD.AC3.-HQCLUB.avi
    Формат : AVI
    Формат/Информация : Audio Video Interleave
    Размер файла : 1,45 Гбайт
    Продолжительность : 1 ч. 29 м.
    Общий поток : 2332 Кбит/сек
    Название фильма : Свадьба по обмену (2011) BDRip
    Программа кодирования : VirtualDubMod 1.5.10.2 (build 2540/release)
    Примечание : 28.03.2012
    Видео
    Идентификатор : 0
    Формат : MPEG-4 Visual
    Профиль формата : Advanced Simple@L5
    Параметр BVOP формата : 1
    Параметр QPel формата : Нет
    Параметр GMC формата : Без точки перехода
    Параметр матрицы формата : Выборочная
    Идентификатор кодека : XVID
    Идентификатор кодека/Подсказка : XviD
    Продолжительность : 1 ч. 29 м.
    Битрейт : 1875 Кбит/сек
    Ширина : 704 пикселя
    Высота : 384 пикселя
    Соотношение сторон : 1,85:1
    Частота кадров : 25,000 кадров/сек
    Цветовое пространство : YUV
    Субдискретизация насыщенности : 4:2:0
    Битовая глубина : 8 бит
    Тип развёртки : Прогрессивная
    Метод сжатия : С потерями
    Бит/(Пиксели*Кадры) : 0.277
    Размер потока : 1,17 Гбайт (80%)
    Библиотека кодирования : XviD 72
    Аудио
    Идентификатор : 1
    Формат : AC-3
    Формат/Информация : Audio Coding 3
    Расширение режима : CM (complete main)
    Параметр Endianness формата : Big
    Идентификатор кодека : 2000
    Продолжительность : 1 ч. 29 м.
    Вид битрейта : Постоянный
    Битрейт : 448 Кбит/сек
    Каналы : 6 каналов
    Расположение каналов : Front: L C R, Side: L R, LFE
    Частота : 48,0 КГц
    Частота кадров : 31,250 кадров/сек (1536 spf)
    Метод сжатия : С потерями
    Размер потока : 285 Мбайт (19%)
    Выравнивание : Разделение по промежуткам
    Продолжительность промежутка : 40 мс. (1,00 видеокадр)
    Время предзагрузки промежутка : 500 мс.

    Скриншот c названием фильма

    Скриншоты

    Скачать .torrent

    Скачать торрент-файл бесплатно и на максимальной скорости!

    Как скачивать? · Что такое торрент? · Рейтинг и ограничения

    !ВНИМАНИЕ!
    Сайт не распространяет и не хранит электронные версии произведений, а занимается лишь лишь предоставлением доступа к создаваемому пользователями каталогу ссылок на торрент-файлы, которые содержат только списки хеш-сумм, убедительная просьба с жалобами обращаться напрямую к пользователю. Файлы для обмена на трекере предоставлены пользователями сайта, и администрация не несёт ответственности за их содержание. Просьба не заливать файлы, защищенные авторскими правами, а также файлы нелегального содержания!


    _________________
    [Профиль] [ЛС]
    Показать сообщения:    
    Ответить на тему

    Текущее время: Сегодня, в 01:57

    Часовой пояс: GMT + 2



    Вы не можете начинать темы
    Вы не можете отвечать на сообщения
    Вы не можете редактировать свои сообщения
    Вы не можете удалять свои сообщения
    Вы не можете голосовать в опросах
    Вы не можете прикреплять файлы к сообщениям
    Вы не можете скачивать файлы