BitTorrentTracker PerecTracker.org
BitTorrentTracker PerecTracker.org
    
Регистрация  ·  Вход
 
 · 
Забыли пароль?

  • Кто подставил кролика Роджера / Who Framed Roger Rabbit (Роберт Земекис) [1988, США, мультфильм, фэнтези, комедия, криминал, семейный, WEB-DL HD (1080p, 720p), SD (480p)] DUB, Original + SUB (rus, eng)

    Ответить на тему
     
    Автор Сообщение

    Flirldrerve

    Создавать темы 09-Мар-2016 20:15

           

    [Цитировать]

    Кто подставил кролика Роджера / Who Framed Roger Rabbit
    "It's the story of a man, a woman, and a rabbit in a triangle of trouble"
    7.872 / 10
    -Год выпуска: 1988
    Страна: США
    Жанр: мультфильм, фэнтези, комедия, криминал, семейный
    Продолжительность: 103 мин.
    Перевод: Профессиональный дублированный перевод
    Оригинальная аудиодорожка: Есть
    Cубтитры: Русские полные и английские полные
    Режиссёр: Роберт Земекис
    Сценарий: Джефри Прайс, Питер С. Симен, Гари К. Вульф
    Продюсер: Дон Хан, Кэтлин Кеннеди, Фрэнк Маршалл
    Оператор: Дин Канди
    Композитор: Алан Сильвестри
    Художник: Роджер Кэйн, Эллиот Скотт, Джоанна Джонстон
    Монтаж: Артур Шмидт
    В ролях: Боб Хоскинс, Кристофер Ллойд, Джоанна Кэссиди, Чарльз Флайшер, Стабби Кэй, Алан Тилверн, Ричард ЛеПарментье, Лу Хирш, Бетси Брэнтли, Джоэл Силвер
    Роли дублировали: Всеволод Абдулов, Владимир Еремин, Марина Тарасова, Игорь Тарадайкин, Юрий Саранцев
    Бюджет: $70 000 000
    Сборы в США: $156 452 370
    Сборы в мире: + $173 351 588 = $329 803 958
    Мировая премьера: 21 июня 1988
    Релиз на Blu-Ray: 26 марта 2013, Уолт Дисней Компани СНГ
    Релиз на DVD: 5 апреля 2011, Уолт Дисней Компани СНГ
    Описание: Частный детектив расследует загадочное преступление, в котором подозревается... мультипликационный персонаж кролик Роджер! Сыщик попадает в непредсказуемый мир, где его ожидают нарисованные злодеи с настоящими револьверами, говорящий автомобиль и соблазнительная мультяшная красотка. Наконец, на горизонте появляется мрачная фигура того, кто подставил кролика Роджера...-Качество исходника: WEB-DL (iTunes Russia)
    Качество: WEB-DL
    Тип: 480p 720p 1080p
    Контейнер: m4v
    Видео: 640x460 анаморф 853x460 at 23.976 fps, MPEG-4 AVC, ~1500 kbps avg
    Видео: 1280x692 at 23.976 fps, MPEG-4 AVC, ~4100 kbps avg
    Видео: 1916x1096 at 23.976 fps, MPEG-4 AVC, ~5100 kbps avg
    Аудио#1: Russian: 44.1 / 48 kHz, ААС, 2/0 (L,R), ~128.00 / 160.00 kbps avg |Дубляж, iTunes Russia|
    Аудио#2: English: 44.1 / 48 kHz, ААС, 2/0 (L,R), ~128.00 / 160.00 kbps avg
    Субтитры №1: Russian: |Полные, iTunes Russia|
    Субтитры №2: English: |Полные, Closed Caption from iTunes Russia|-

    Знаете ли Вы, что...

    • В фильме показаны легендарные трамваи PCC (эти трамваи, созданные в начале 1930-х годов, и сейчас используются в некоторых городах США и Европы). Трамваи грохочут, сыплют искрами, однако жители города всё равно любят их. Даже местная пивная называется «Terminal station Bar» (Бар «Конечная остановка»).
    • Бо́льшая часть кинематографической традиции и несколько сцен фильма являются данью уважения фильму Романа Полански «Китайский квартал»
    • Изначальное отсутствие вопросительного знака в названии можно объяснить, предположительно, суеверием, что фильмы с вопросительным знаком в названии собирают мало кассовых сборов.
    • Титры фильма выводятся в течение почти десяти минут. На момент выхода кролик Роджер был рекордсменом по самой длинной последовательности титров за всю историю кино.
    • Дорогой, которую планируют построить через Мульттаун, называют путь «отсюда до Пасадены». Возможно, подразумевается автострада «Пасадена», берущая начало из центра Лос-Анджелеса (закончена в 1940-м и потеряла своё значение), или калифорнийское шоссе N 134, проходящее недалеко от Бербанка, Калифорния.
    • «Кто подставил кролика Роджера» — это первый фильм студии Диснея, который был показан по телеканалу «Cartoon Network», принадлежащему «Time Warner».
    • Более сотни отдельных фрагментов фильма были оптически объединены, чтобы совместить элементы живого действия и анимации. Сами анимационные персонажи были прорисованы вручную без компьютерной мультипликации; аналоговые оптические эффекты использовались для того, чтобы добавить тени и освещение мультяшек, чтобы придать им «более реалистичный», трёхмерный вид.
    • Большинство поклонников фильма вешают на Джессику Рэббит ярлык «Франкенштейн из богинь фильмов»: говорит голосом Лорен Беколиш (по собственной просьбе Кэтлин Тёрнер в титрах не значится), имеет ноги Бетти Грэйбл, туловище и ягодицы Мэрилин Монро, грудь Джэйн Мансфилд, волосы Вероники Лейк, глаза Мерлин Дитрих, и певчий голос Джуди Гарланд (реализован Эми Ирвинг).
    • Впервые на экране одновременно появляются анимационные персонажи созданные разными киностудиями — Диснея и Уорнер Бразерс.
    • По началу режиссерское кресло предлагали Терри Гиллиаму, а на роль Эдди планировался Харрисон Форд, Сталлоне или Джек Николсон.
    • Изначально, согласно первому варианту сценария, судья Дум должен быть охотником, который стрелял и убил мать Бэмби, таким образом, в большей степени раскрывается его садистская, жестокая, и чёрствая природа по отношению к своим собратьям-мультяшкам. Однако предполагается, что Дисней отклонил эту идею, считая, что идея массового убийства более предпочтительна, не желая пугать маленьких зрителей этим персонажем больше, чем это необходимо для эмоциональных целей фильма. Эта идея была позже использована в Диснеевском мультфильме «Красавица и чудовище», и предположительно, Гастон был тем, кто убил мать Бэмби. В данном случае нет точных сведений, кто же на самом деле этот судья Дум, большое число поклонников теряются в догадках.

    из книги «3500 кинорецензий»


    Комедийно-детективная фантазия с анимацией (Сергей Кудрявцев 8.5/10)
    Один из рекордсменов мирового кинопроката 80-х годов (вплоть до 2000 года он оставался среди ста самых кассовых за всю историю кино США) возник благодаря альянсу фирм Стивена Спилберга и Уолта Диснея. Два сказочника рассказывали и продолжают рассказывать (Дисней хоть и умер давно, но его кинокомпания хранит верность традициям) занимательные, подчас невероятные и даже абсолютно невозможные истории для детей и взрослых. Фильм «Кто подставил кролика Роджера» Роберта Земекиса, талантливого спилберговского протеже, как бы открыл новое ответвление уже иссякавшей «золотоносной жилы», обнаружил ещё один способ привлечения аудитории самых разных возрастов в кинозал для того, чтобы развлечься, весело провести время, насладиться эффектным зрелищем.
    Справедливости ради надо сказать, что и сам Дисней пробовал сочетать анимацию с живым действием, игрой актёров. Кроме того, этот приём был блистательно использован в ряде сцен мюзикла «Приглашение к танцу» (1956) Джина Келли. Но только «киновундеркинды» вроде продюсера Спилберга и режиссёра Земекиса догадались построить всю картину на подобном принципе, достигнув впечатляющего эффекта взаимодействия нарисованного и отдельно заснятого изображения с участием реальных исполнителей. Это ведь по-настоящему забавно, что частный детектив Эдди Вэлиант (то есть Отважный) помогает «мультяшке», кролику Роджеру, доказать его непричастность к убийству Марвина Акме, владельца студии по производству анимационных фильмов. И авторы ленты «Кто подставил кролика Роджера» поражают уникальным профессионализмом (анимация Ричарда Уильямса и визуальные эффекты, осуществлённые под руководством Кена Рэлстона, были удостоены премий «Оскар»), создавая свою увлекательную феерию.
    Помимо этого, они остаются верны законам постмодернизма, насыщая повествование множеством иронических цитат, отсылок, заимствований. Детективный сюжет является очень смешным парафразом на темы триллеров и «чёрных фильмов» 40-х годов — от «Мальтийского сокола» до «Двойной страховки». Злодей-прокурор с «говорящей» фамилией Дум (Рок) перекочевал из комиксов. Популярные герои анимации (в том числе — диснеевские утёнок Доналд и слонёнок Дамбо) должны напомнить зрителям знакомые с детства ленты. А специально придуманный экстравагантный и отчаянный кролик Роджер — это более комический вариант Багза Банни из известного киносериала компании «Уорнер Бразерс». Желающие также могут обнаружить пародийную перекличку ряда сцен, например финального поединка с прокурором Думом, и некоторых современных «крутых боевиков». В титрах картины не указано, что роль роковой красавицы Джессики, жены кролика Роджера, озвучивала Кэтлин Тёрнер, которая прежде снималась у Роберта Земекиса в «Романе с камнем». А вот её вокальную партию исполняла актриса Эми Эрвинг, кстати, являвшаяся в то время женой Стивена Спилберга.
    1989

    -

    iTunes Meta Tags for country ru

    Name: Кто подставил кролика Роджера
    Artist: Robert Zemeckis
    Genre: Comedy
    Release Date: 1988-06-21T08:00:00Z
    Description: Частный детектив расследует загадочное преступление, в котором подозревается... мультипликационный персонаж кролик Роджер!
    Long Description: Частный детектив расследует загадочное преступление, в котором подозревается... мультипликационный персонаж кролик Роджер! Сыщик попадает в непредсказуемый мир, где его ожидают нарисованные злодеи с настоящими револьверами, говорящий автомобиль и соблазнительная мультяшная красотка. Наконец, на горизонте появляется мрачная фигура того, кто подставил кролика Роджера...
    Rating: 16+
    Rating Annotation: Rated 16+ Для зрителей, достигших возраста 16 лет
    Studio: Touchstone Pictures
    Cast: Боб Хоскинс, Кристофер Ллойд, Джоанна Кэссиди, Чарльз Флайшер, Стабби Кэй, Алан Тилверн, Ричард ЛеПарментье, Лу Хирш, Бетси Брэнтли, Джоэл Силвер
    Director: Роберт Земекис
    Producers: Дон Хан, Кэтлин Кеннеди, Фрэнк Маршалл
    Screenwriters: Джефри Прайс, Питер С. Симен, Гари К. Вульф
    Copyright: © 1988 Touchstone Pictures
    contentID: 492265546
    XID: buenavista:vendor_id:WFR0NNG2_DADTV
    Sort Name: Кто подставил кролика Роджера

    iTunes Meta Tags for country us

    Name: Who Framed Roger Rabbit
    Artist: Robert Zemeckis
    Genre: Comedy
    Release Date: 1988-06-21T08:00:00Z
    Description: Частный детектив расследует загадочное преступление, в котором подозревается... мультипликационный персонаж кролик Роджер!
    Long Description: Частный детектив расследует загадочное преступление, в котором подозревается... мультипликационный персонаж кролик Роджер! Сыщик попадает в непредсказуемый мир, где его ожидают нарисованные злодеи с настоящими револьверами, говорящий автомобиль и соблазнительная мультяшная красотка. Наконец, на горизонте появляется мрачная фигура того, кто подставил кролика Роджера...
    Rating: PG
    Studio: Touchstone Pictures
    Cast: Боб Хоскинс, Кристофер Ллойд, Джоанна Кэссиди, Чарльз Флайшер, Стабби Кэй, Алан Тилверн, Ричард ЛеПарментье, Лу Хирш, Бетси Брэнтли, Джоэл Силвер
    Director: Роберт Земекис
    Producers: Дон Хан, Кэтлин Кеннеди, Фрэнк Маршалл
    Screenwriters: Джефри Прайс, Питер С. Симен, Гари К. Вульф
    Copyright: © 1998 Touchstone Pictures
    contentID: 579011609
    XID: buenavista:vendor_id:WFR0NNG2_DADTV
    Sort Name: Who Framed Roger Rabbit

    MediaInfo 480p Release

    Общее
    Полное имя : Who Framed Roger Rabbit.m4v
    Формат : MPEG-4
    Идентификатор кодека : M4V  (M4V /M4A /mp42/isom)
    Размер файла : 1,27 Гбайт
    Продолжительность : 1 ч. 43 м.
    Режим общего битрейта : Переменный
    Общий поток : 1751 Кбит/сек
    Название фильма : Who Framed Roger Rabbit
    Исполнитель : Robert Zemeckis
    Режиссёр : Роберт Земекис
    Исполнитель : Боб Хоскинс / Кристофер Ллойд / Джоанна Кэссиди / Чарльз Флайшер / Стабби Кэй / Алан Тилверн / Ричард ЛеПарментье / Лу Хирш / Бетси Брэнтли / Джоэл Силвер
    Сценарист : Джефри Прайс / Питер С. Симен / Гари К. Вульф
    Продюсер : Дон Хан / Кэтлин Кеннеди / Фрэнк Маршалл
    Студия-производитель : Touchstone Pictures
    Жанр : Comedy
    Тип содержимого : Short Film
    Описание : Частный детектив расследует загадочное преступление, в котором подозревается... мультипликационный персонаж кролик Роджер!
    Дата записи : UTC 1988-06-21 08:00:00
    Дата кодирования : UTC 2016-03-09 12:51:25
    Дата пометки : UTC 2016-03-09 13:01:21
    Авторское право : © 1998 Touchstone Pictures
    Обложка : Yes
    Оценка : None
    Title/Sort : Who Framed Roger Rabbit
    LongDescription : Частный детектив расследует загадочное преступление, в котором подозревается... мультипликационный персонаж кролик Роджер! Сыщик попадает в непредсказуемый мир, где его ожидают нарисованные злодеи с настоящими револьверами, говорящий автомобиль и соблазнительная мультяшная красотка. Наконец, на горизонте появляется мрачная фигура того, кто подставил кролика Роджера...
    AppleStoreCatalogID : 579011609
    AlbumTitleID : 291374507
    GenreID : 4404
    Vendor : buenavista:vendor_id:WFR0NNG2_DADTV
    ContentRating : mpaa|PG|200|
    Видео #1
    Идентификатор : 1
    Формат : AVC
    Формат/Информация : Advanced Video Codec
    Профиль формата : Baseline@L3
    Параметр CABAC формата : Нет
    Параметр ReFrames формата : 1 кадр
    Параметр GOP формата : M=1, N=120
    Идентификатор кодека : avc1
    Идентификатор кодека/Информация : Advanced Video Coding
    Продолжительность : 1 ч. 43 м.
    Продолжительность оригинала : 1 ч. 43 м.
    Ширина : 640 пикселей
    Высота : 460 пикселей
    Соотношение сторон : 1,85:1
    Режим частоты кадров : Постоянный
    Частота кадров : 23,976 (23976/1000) кадра/сек
    Цветовое пространство : YUV
    Субдискретизация насыщенности : 4:2:0
    Битовая глубина : 8 бит
    Тип развёртки : Прогрессивная
    Размер потока оригинала : 1,10 Гбайт (87%)
    Заголовок : Main Program
    Язык : English
    Дата кодирования : UTC 2016-03-09 12:51:25
    Дата пометки : UTC 2016-03-09 12:55:07
    Цветовой диапазон : Limited
    Основные цвета : BT.601 NTSC
    Характеристики трансфера : BT.709
    Коэффициенты матрицы : BT.601
    Menus : 6,7
    Видео #2
    Идентификатор : 7
    Формат : JPEG
    Идентификатор кодека : jpeg
    Продолжительность : 1 ч. 43 м.
    Вид битрейта : Переменный
    Битрейт : 1073 бит/сек
    Ширина : 640 пикселей
    Высота : 345 пикселей
    Соотношение сторон : 1,85:1
    Режим частоты кадров : Переменный
    Частота кадров : 0,003 кадр/сек
    Минимальная частота кадров : 0,001 кадр/сек
    Максимальная частота кадров : 0,032 кадр/сек
    Цветовое пространство : YUV
    Субдискретизация насыщенности : 4:2:0
    Битовая глубина : 8 бит
    Метод сжатия : С потерями
    Бит/(Пиксели*Кадры) : 1.620
    Размер потока : 830 Кбайт (0%)
    Заголовок : Chapter Images
    Язык : English
    Default : Нет
    Дата кодирования : UTC 2016-03-09 13:01:15
    Дата пометки : UTC 2016-03-09 13:01:16
    Menu For : 1
    Аудио #1
    Идентификатор : 2
    Формат : AAC
    Формат/Информация : Advanced Audio Codec
    Профиль формата : LC
    Идентификатор кодека : 40
    Продолжительность : 1 ч. 43 м.
    Продолжительность оригинала : 1 ч. 43 м.
    Вид битрейта : Переменный
    Номинальный битрейт : 102 Кбит/сек
    Максимальный битрейт : 118 Кбит/сек
    Каналы : 2 канала
    Расположение каналов : Front: L R
    Частота : 44,1 КГц
    Частота кадров : 43,066 кадра/сек (1024 spf)
    Метод сжатия : С потерями
    Размер потока оригинала : 75,3 Мбайт (6%)
    Заголовок : Russian Stereo
    Язык : Russian
    Default : Да
    Alternate group : 1
    Дата кодирования : UTC 2016-03-09 12:51:25
    Дата пометки : UTC 2016-03-09 12:55:07
    Menus : 6
    Аудио #2
    Идентификатор : 3
    Формат : AAC
    Формат/Информация : Advanced Audio Codec
    Профиль формата : LC
    Идентификатор кодека : 40
    Продолжительность : 1 ч. 43 м.
    Продолжительность оригинала : 1 ч. 43 м.
    Вид битрейта : Переменный
    Номинальный битрейт : 125 Кбит/сек
    Максимальный битрейт : 213 Кбит/сек
    Каналы : 2 канала
    Расположение каналов : Front: L R
    Частота : 44,1 КГц
    Частота кадров : 43,066 кадра/сек (1024 spf)
    Метод сжатия : С потерями
    Размер потока оригинала : 93,1 Мбайт (7%)
    Заголовок : English Stereo
    Язык : English
    Default : Нет
    Alternate group : 1
    Дата кодирования : UTC 2016-03-09 12:51:25
    Дата пометки : UTC 2016-03-09 12:55:07
    Текст #1
    Идентификатор : 4
    Формат : Timed Text
    Режим смешивания : sbtl
    Идентификатор кодека : tx3g
    Продолжительность : 1 ч. 37 м.
    Продолжительность оригинала : 1 ч. 36 м.
    Вид битрейта : Переменный
    Битрейт : 122 бит/сек
    Размер потока : 86,6 Кбайт (0%)
    Размер потока оригинала : 86,6 Кбайт (0%)
    Заголовок : Russian Subtitle
    Язык : Russian
    Default : Да
    Forced : Mixed
    Alternate group : 2
    Дата кодирования : UTC 2016-03-09 12:51:25
    Дата пометки : UTC 2016-03-09 12:54:41
    Текст #2
    Идентификатор : 5
    Формат : Timed Text
    Режим смешивания : sbtl
    Идентификатор кодека : tx3g
    Продолжительность : 1 ч. 37 м.
    Вид битрейта : Переменный
    Битрейт : 126 бит/сек
    Размер потока : 89,5 Кбайт (0%)
    Заголовок : English CC Subtitle
    Язык : English
    Default : Нет
    Forced : Нет
    Alternate group : 2
    Дата кодирования : UTC 2016-03-09 13:00:57
    Дата пометки : UTC 2016-03-09 13:00:57
    Меню #1
    00:00:00.000 : 1
    00:00:31.000 : 2
    00:05:35.000 : 3
    00:18:17.000 : 4
    00:22:33.000 : 5
    00:28:54.000 : 6
    00:34:17.000 : 7
    00:36:41.000 : 8
    00:43:24.000 : 9
    00:49:38.000 : 10
    00:55:15.000 : 11
    00:57:25.000 : 12
    01:05:04.000 : 13
    01:09:39.000 : 14
    01:16:51.000 : 15
    01:23:55.000 : 16
    01:28:15.000 : 17
    01:36:25.000 : 18
    01:37:05.000 : 19
    Меню #2
    Идентификатор : 6
    Идентификатор кодека : text
    Продолжительность : 1 ч. 43 м.
    Заголовок : Chapter Titles
    Язык : English
    Дата кодирования : UTC 2016-03-09 13:01:12
    Дата пометки : UTC 2016-03-09 13:01:12
    Menu For : 2,1
    00:00:00.000 : 1
    00:00:31.000 : 2
    00:05:35.000 : 3
    00:18:17.000 : 4
    00:22:33.000 : 5
    00:28:54.000 : 6
    00:34:17.000 : 7
    00:36:41.000 : 8
    00:43:24.000 : 9
    00:49:38.000 : 10
    00:55:15.000 : 11
    00:57:25.000 : 12
    01:05:04.000 : 13
    01:09:39.000 : 14
    01:16:51.000 : 15
    01:23:55.000 : 16
    01:28:15.000 : 17
    01:36:25.000 : 18
    01:37:05.000 : 19
    Вид битрейта : VBR

    MediaInfo 720p Release

    Общее
    Полное имя : Who Framed Roger Rabbit (HD).m4v
    Формат : MPEG-4
    Идентификатор кодека : M4V  (M4V /M4A /mp42/isom)
    Размер файла : 3,17 Гбайт
    Продолжительность : 1 ч. 43 м.
    Режим общего битрейта : Переменный
    Общий поток : 4370 Кбит/сек
    Название фильма : Who Framed Roger Rabbit
    Исполнитель : Robert Zemeckis
    Режиссёр : Роберт Земекис
    Исполнитель : Боб Хоскинс / Кристофер Ллойд / Джоанна Кэссиди / Чарльз Флайшер / Стабби Кэй / Алан Тилверн / Ричард ЛеПарментье / Лу Хирш / Бетси Брэнтли / Джоэл Силвер
    Сценарист : Джефри Прайс / Питер С. Симен / Гари К. Вульф
    Продюсер : Дон Хан / Кэтлин Кеннеди / Фрэнк Маршалл
    Студия-производитель : Touchstone Pictures
    Жанр : Comedy
    Тип содержимого : Short Film
    Описание : Частный детектив расследует загадочное преступление, в котором подозревается... мультипликационный персонаж кролик Роджер!
    Дата записи : UTC 1988-06-21 08:00:00
    Дата кодирования : UTC 2016-03-09 12:36:29
    Дата пометки : UTC 2016-03-09 13:04:39
    Авторское право : © 1998 Touchstone Pictures
    Обложка : Yes
    Оценка : None
    Title/Sort : Who Framed Roger Rabbit
    LongDescription : Частный детектив расследует загадочное преступление, в котором подозревается... мультипликационный персонаж кролик Роджер! Сыщик попадает в непредсказуемый мир, где его ожидают нарисованные злодеи с настоящими револьверами, говорящий автомобиль и соблазнительная мультяшная красотка. Наконец, на горизонте появляется мрачная фигура того, кто подставил кролика Роджера...
    HDVideo : Yes
    AppleStoreCatalogID : 579011609
    AlbumTitleID : 291374507
    GenreID : 4404
    Vendor : buenavista:vendor_id:WFR0NNG2_DADTV
    ContentRating : mpaa|PG|200|
    Видео #1
    Идентификатор : 1
    Формат : AVC
    Формат/Информация : Advanced Video Codec
    Профиль формата : High@L3.1
    Параметр CABAC формата : Нет
    Параметр ReFrames формата : 2 кадра
    Параметр GOP формата : M=2, N=86
    Идентификатор кодека : avc1
    Идентификатор кодека/Информация : Advanced Video Coding
    Продолжительность : 1 ч. 43 м.
    Продолжительность оригинала : 1 ч. 43 м.
    Ширина : 1280 пикселей
    Высота : 692 пикселя
    Соотношение сторон : 1,85:1
    Режим частоты кадров : Постоянный
    Частота кадров : 23,976 (23976/1000) кадра/сек
    Цветовое пространство : YUV
    Субдискретизация насыщенности : 4:2:0
    Битовая глубина : 8 бит
    Тип развёртки : Прогрессивная
    Размер потока оригинала : 2,96 Гбайт (93%)
    Заголовок : Main Program
    Язык : English
    Дата кодирования : UTC 2016-03-09 12:36:29
    Дата пометки : UTC 2016-03-09 12:41:46
    Цветовой диапазон : Limited
    Основные цвета : BT.709
    Характеристики трансфера : BT.709
    Коэффициенты матрицы : BT.709
    Menus : 6,7
    Видео #2
    Идентификатор : 7
    Формат : JPEG
    Идентификатор кодека : jpeg
    Продолжительность : 1 ч. 43 м.
    Вид битрейта : Переменный
    Битрейт : 1125 бит/сек
    Ширина : 640 пикселей
    Высота : 346 пикселей
    Соотношение сторон : 1,85:1
    Режим частоты кадров : Переменный
    Частота кадров : 0,003 кадр/сек
    Минимальная частота кадров : 0,001 кадр/сек
    Максимальная частота кадров : 0,032 кадр/сек
    Цветовое пространство : YUV
    Субдискретизация насыщенности : 4:2:0
    Битовая глубина : 8 бит
    Метод сжатия : С потерями
    Бит/(Пиксели*Кадры) : 1.693
    Размер потока : 870 Кбайт (0%)
    Заголовок : Chapter Images
    Язык : English
    Default : Нет
    Дата кодирования : UTC 2016-03-09 13:03:42
    Дата пометки : UTC 2016-03-09 13:03:43
    Menu For : 1
    Аудио #1
    Идентификатор : 2
    Формат : AAC
    Формат/Информация : Advanced Audio Codec
    Профиль формата : LC
    Идентификатор кодека : 40
    Продолжительность : 1 ч. 43 м.
    Продолжительность оригинала : 1 ч. 43 м.
    Вид битрейта : Переменный
    Номинальный битрейт : 124 Кбит/сек
    Максимальный битрейт : 138 Кбит/сек
    Каналы : 2 канала
    Расположение каналов : Front: L R
    Частота : 48,0 КГц
    Частота кадров : 46,875 кадров/сек (1024 spf)
    Метод сжатия : С потерями
    Размер потока оригинала : 92,1 Мбайт (3%)
    Заголовок : Russian Stereo
    Язык : Russian
    Default : Да
    Alternate group : 1
    Дата кодирования : UTC 2016-03-09 12:36:29
    Дата пометки : UTC 2016-03-09 12:41:46
    Menus : 6
    Аудио #2
    Идентификатор : 3
    Формат : AAC
    Формат/Информация : Advanced Audio Codec
    Профиль формата : LC
    Идентификатор кодека : 40
    Продолжительность : 1 ч. 43 м.
    Продолжительность оригинала : 1 ч. 43 м.
    Вид битрейта : Переменный
    Номинальный битрейт : 157 Кбит/сек
    Максимальный битрейт : 255 Кбит/сек
    Каналы : 2 канала
    Расположение каналов : Front: L R
    Частота : 48,0 КГц
    Частота кадров : 46,875 кадров/сек (1024 spf)
    Метод сжатия : С потерями
    Размер потока оригинала : 116 Мбайт (4%)
    Заголовок : English Stereo
    Язык : English
    Default : Нет
    Alternate group : 1
    Дата кодирования : UTC 2016-03-09 12:36:29
    Дата пометки : UTC 2016-03-09 12:41:46
    Текст #1
    Идентификатор : 4
    Формат : Timed Text
    Режим смешивания : sbtl
    Идентификатор кодека : tx3g
    Продолжительность : 1 ч. 37 м.
    Продолжительность оригинала : 1 ч. 36 м.
    Вид битрейта : Переменный
    Битрейт : 122 бит/сек
    Размер потока : 86,6 Кбайт (0%)
    Размер потока оригинала : 86,6 Кбайт (0%)
    Заголовок : Russian Subtitle
    Язык : Russian
    Default : Да
    Forced : Mixed
    Alternate group : 2
    Дата кодирования : UTC 2016-03-09 12:36:29
    Дата пометки : UTC 2016-03-09 12:41:11
    Текст #2
    Идентификатор : 5
    Формат : Timed Text
    Режим смешивания : sbtl
    Идентификатор кодека : tx3g
    Продолжительность : 1 ч. 37 м.
    Вид битрейта : Переменный
    Битрейт : 126 бит/сек
    Размер потока : 89,5 Кбайт (0%)
    Заголовок : English CC Subtitle
    Язык : English
    Default : Нет
    Forced : Нет
    Alternate group : 2
    Дата кодирования : UTC 2016-03-09 13:03:38
    Дата пометки : UTC 2016-03-09 13:03:38
    Меню #1
    00:00:00.000 : 1
    00:00:31.000 : 2
    00:05:35.000 : 3
    00:18:17.000 : 4
    00:22:33.000 : 5
    00:28:54.000 : 6
    00:34:17.000 : 7
    00:36:41.000 : 8
    00:43:24.000 : 9
    00:49:38.000 : 10
    00:55:15.000 : 11
    00:57:25.000 : 12
    01:05:04.000 : 13
    01:09:39.000 : 14
    01:16:51.000 : 15
    01:23:55.000 : 16
    01:28:15.000 : 17
    01:36:25.000 : 18
    01:37:05.000 : 19
    Меню #2
    Идентификатор : 6
    Идентификатор кодека : text
    Продолжительность : 1 ч. 43 м.
    Заголовок : Chapter Titles
    Язык : English
    Дата кодирования : UTC 2016-03-09 13:03:38
    Дата пометки : UTC 2016-03-09 13:03:38
    Menu For : 2,1
    00:00:00.000 : 1
    00:00:31.000 : 2
    00:05:35.000 : 3
    00:18:17.000 : 4
    00:22:33.000 : 5
    00:28:54.000 : 6
    00:34:17.000 : 7
    00:36:41.000 : 8
    00:43:24.000 : 9
    00:49:38.000 : 10
    00:55:15.000 : 11
    00:57:25.000 : 12
    01:05:04.000 : 13
    01:09:39.000 : 14
    01:16:51.000 : 15
    01:23:55.000 : 16
    01:28:15.000 : 17
    01:36:25.000 : 18
    01:37:05.000 : 19
    Вид битрейта : VBR

    MediaInfo 1080p Release

    Общее
    Полное имя : Who Framed Roger Rabbit (1080p HD).m4v
    Формат : MPEG-4
    Идентификатор кодека : M4V  (M4V /M4A /mp42/isom)
    Размер файла : 3,91 Гбайт
    Продолжительность : 1 ч. 43 м.
    Режим общего битрейта : Переменный
    Общий поток : 5391 Кбит/сек
    Название фильма : Who Framed Roger Rabbit
    Исполнитель : Robert Zemeckis
    Режиссёр : Роберт Земекис
    Исполнитель : Боб Хоскинс / Кристофер Ллойд / Джоанна Кэссиди / Чарльз Флайшер / Стабби Кэй / Алан Тилверн / Ричард ЛеПарментье / Лу Хирш / Бетси Брэнтли / Джоэл Силвер
    Сценарист : Джефри Прайс / Питер С. Симен / Гари К. Вульф
    Продюсер : Дон Хан / Кэтлин Кеннеди / Фрэнк Маршалл
    Студия-производитель : Touchstone Pictures
    Жанр : Comedy
    Тип содержимого : Short Film
    Описание : Частный детектив расследует загадочное преступление, в котором подозревается... мультипликационный персонаж кролик Роджер!
    Дата записи : UTC 1988-06-21 08:00:00
    Дата кодирования : UTC 2016-03-09 12:22:26
    Дата пометки : UTC 2016-03-09 13:06:58
    Авторское право : © 1998 Touchstone Pictures
    Обложка : Yes
    Оценка : None
    Title/Sort : Who Framed Roger Rabbit
    LongDescription : Частный детектив расследует загадочное преступление, в котором подозревается... мультипликационный персонаж кролик Роджер! Сыщик попадает в непредсказуемый мир, где его ожидают нарисованные злодеи с настоящими револьверами, говорящий автомобиль и соблазнительная мультяшная красотка. Наконец, на горизонте появляется мрачная фигура того, кто подставил кролика Роджера...
    AppleStoreCatalogID : 579011609
    AlbumTitleID : 291374507
    GenreID : 4404
    Vendor : buenavista:vendor_id:WFR0NNG2_DADTV
    ContentRating : mpaa|PG|200|
    Видео #1
    Идентификатор : 1
    Формат : AVC
    Формат/Информация : Advanced Video Codec
    Профиль формата : High@L4
    Параметр CABAC формата : Да
    Параметр ReFrames формата : 4 кадра
    Идентификатор кодека : avc1
    Идентификатор кодека/Информация : Advanced Video Coding
    Продолжительность : 1 ч. 43 м.
    Продолжительность оригинала : 1 ч. 43 м.
    Ширина : 1916 пикселей
    Высота : 1036 пикселей
    Соотношение сторон : 1,85:1
    Режим частоты кадров : Постоянный
    Частота кадров : 23,976 (23976/1000) кадра/сек
    Цветовое пространство : YUV
    Субдискретизация насыщенности : 4:2:0
    Битовая глубина : 8 бит
    Тип развёртки : Прогрессивная
    Размер потока оригинала : 3,70 Гбайт (95%)
    Заголовок : Main Program
    Язык : English
    Дата кодирования : UTC 2016-03-09 12:22:27
    Дата пометки : UTC 2016-03-09 12:28:23
    Цветовой диапазон : Limited
    Основные цвета : BT.709
    Характеристики трансфера : BT.709
    Коэффициенты матрицы : BT.709
    Menus : 6,7
    Видео #2
    Идентификатор : 7
    Формат : JPEG
    Идентификатор кодека : jpeg
    Продолжительность : 1 ч. 43 м.
    Вид битрейта : Переменный
    Битрейт : 1080 бит/сек
    Ширина : 640 пикселей
    Высота : 346 пикселей
    Соотношение сторон : 1,85:1
    Режим частоты кадров : Переменный
    Частота кадров : 0,003 кадр/сек
    Минимальная частота кадров : 0,001 кадр/сек
    Максимальная частота кадров : 0,032 кадр/сек
    Цветовое пространство : YUV
    Субдискретизация насыщенности : 4:2:0
    Битовая глубина : 8 бит
    Метод сжатия : С потерями
    Бит/(Пиксели*Кадры) : 1.626
    Размер потока : 835 Кбайт (0%)
    Заголовок : Chapter Images
    Язык : English
    Default : Нет
    Дата кодирования : UTC 2016-03-09 13:04:30
    Дата пометки : UTC 2016-03-09 13:04:31
    Menu For : 1
    Аудио #1
    Идентификатор : 2
    Формат : AAC
    Формат/Информация : Advanced Audio Codec
    Профиль формата : LC
    Идентификатор кодека : 40
    Продолжительность : 1 ч. 43 м.
    Продолжительность оригинала : 1 ч. 43 м.
    Вид битрейта : Переменный
    Номинальный битрейт : 124 Кбит/сек
    Максимальный битрейт : 138 Кбит/сек
    Каналы : 2 канала
    Расположение каналов : Front: L R
    Частота : 48,0 КГц
    Частота кадров : 46,875 кадров/сек (1024 spf)
    Метод сжатия : С потерями
    Размер потока оригинала : 92,1 Мбайт (2%)
    Заголовок : Russian Stereo
    Язык : Russian
    Default : Да
    Alternate group : 1
    Дата кодирования : UTC 2016-03-09 12:22:27
    Дата пометки : UTC 2016-03-09 12:28:23
    Menus : 6
    Аудио #2
    Идентификатор : 3
    Формат : AAC
    Формат/Информация : Advanced Audio Codec
    Профиль формата : LC
    Идентификатор кодека : 40
    Продолжительность : 1 ч. 43 м.
    Продолжительность оригинала : 1 ч. 43 м.
    Вид битрейта : Переменный
    Номинальный битрейт : 157 Кбит/сек
    Максимальный битрейт : 255 Кбит/сек
    Каналы : 2 канала
    Расположение каналов : Front: L R
    Частота : 48,0 КГц
    Частота кадров : 46,875 кадров/сек (1024 spf)
    Метод сжатия : С потерями
    Размер потока оригинала : 116 Мбайт (3%)
    Заголовок : English Stereo
    Язык : English
    Default : Нет
    Alternate group : 1
    Дата кодирования : UTC 2016-03-09 12:22:27
    Дата пометки : UTC 2016-03-09 12:28:23
    Текст #1
    Идентификатор : 4
    Формат : Timed Text
    Режим смешивания : sbtl
    Идентификатор кодека : tx3g
    Продолжительность : 1 ч. 37 м.
    Продолжительность оригинала : 1 ч. 36 м.
    Вид битрейта : Переменный
    Битрейт : 122 бит/сек
    Размер потока : 86,6 Кбайт (0%)
    Размер потока оригинала : 86,6 Кбайт (0%)
    Заголовок : Russian Subtitle
    Язык : Russian
    Default : Да
    Forced : Mixed
    Alternate group : 2
    Дата кодирования : UTC 2016-03-09 12:22:27
    Дата пометки : UTC 2016-03-09 12:27:49
    Текст #2
    Идентификатор : 5
    Формат : Timed Text
    Режим смешивания : sbtl
    Идентификатор кодека : tx3g
    Продолжительность : 1 ч. 37 м.
    Вид битрейта : Переменный
    Битрейт : 126 бит/сек
    Размер потока : 89,5 Кбайт (0%)
    Заголовок : English CC Subtitle
    Язык : English
    Default : Нет
    Forced : Нет
    Alternate group : 2
    Дата кодирования : UTC 2016-03-09 13:04:11
    Дата пометки : UTC 2016-03-09 13:04:11
    Меню #1
    00:00:00.000 : 1
    00:00:31.000 : 2
    00:05:35.000 : 3
    00:18:17.000 : 4
    00:22:33.000 : 5
    00:28:54.000 : 6
    00:34:17.000 : 7
    00:36:41.000 : 8
    00:43:24.000 : 9
    00:49:38.000 : 10
    00:55:15.000 : 11
    00:57:25.000 : 12
    01:05:04.000 : 13
    01:09:39.000 : 14
    01:16:51.000 : 15
    01:23:55.000 : 16
    01:28:15.000 : 17
    01:36:25.000 : 18
    01:37:05.000 : 19
    Меню #2
    Идентификатор : 6
    Идентификатор кодека : text
    Продолжительность : 1 ч. 43 м.
    Заголовок : Chapter Titles
    Язык : English
    Дата кодирования : UTC 2016-03-09 13:04:22
    Дата пометки : UTC 2016-03-09 13:04:22
    Menu For : 2,1
    00:00:00.000 : 1
    00:00:31.000 : 2
    00:05:35.000 : 3
    00:18:17.000 : 4
    00:22:33.000 : 5
    00:28:54.000 : 6
    00:34:17.000 : 7
    00:36:41.000 : 8
    00:43:24.000 : 9
    00:49:38.000 : 10
    00:55:15.000 : 11
    00:57:25.000 : 12
    01:05:04.000 : 13
    01:09:39.000 : 14
    01:16:51.000 : 15
    01:23:55.000 : 16
    01:28:15.000 : 17
    01:36:25.000 : 18
    01:37:05.000 : 19
    Вид битрейта : VBR

    Скриншоты 480p Release

    Скриншоты 720p Release

    Скриншоты 1080p Release

    -

    Релиз подготовлен для просмотра на Apple TV, iPad, iPhone, iPod Touch.
    Для просмотра данного релиза на компьютере с ОС Windows рекомендуется использовать VLC media player
    Скачать .torrent

    Скачать торрент-файл бесплатно и на максимальной скорости!

    Как скачивать? · Что такое торрент? · Рейтинг и ограничения

    !ВНИМАНИЕ!
    Сайт не распространяет и не хранит электронные версии произведений, а занимается лишь лишь предоставлением доступа к создаваемому пользователями каталогу ссылок на торрент-файлы, которые содержат только списки хеш-сумм, убедительная просьба с жалобами обращаться напрямую к пользователю. Файлы для обмена на трекере предоставлены пользователями сайта, и администрация не несёт ответственности за их содержание. Просьба не заливать файлы, защищенные авторскими правами, а также файлы нелегального содержания!


    _________________
    [Профиль] [ЛС]
    Показать сообщения:    
    Ответить на тему

    Текущее время: Сегодня, в 06:34

    Часовой пояс: GMT + 2



    Вы не можете начинать темы
    Вы не можете отвечать на сообщения
    Вы не можете редактировать свои сообщения
    Вы не можете удалять свои сообщения
    Вы не можете голосовать в опросах
    Вы не можете прикреплять файлы к сообщениям
    Вы не можете скачивать файлы