BitTorrentTracker PerecTracker.org
BitTorrentTracker PerecTracker.org
    
Регистрация  ·  Вход
 
 · 
Забыли пароль?

  • 30 Seconds to Mars • ROCK am RING [SWR HD][2013, Alternative Rock, HDTV 720p]

    Ответить на тему
     
    Автор Сообщение

    Columb

    Создавать темы 10-Янв-2014 11:56

           

    [Цитировать]

    30 Seconds to Mars • ROCK am RING [SWR HD]
    Жанр: Alternative Rock
    Продолжительность: 12:58
    Год выпуска: 2013
    Описание:
    07 June 2013
    Nürburg, Germany
    Nürburgring

    Треклист:
    01. Conquistador
    02. The Kill (Bury Me)
    03. Do or Die
    Качество: HDTV 720p
    Контейнер: MKV
    Видео: MPEG4 Video | 1280x720 | 12.1 Mbps | 50.000 fps
    Аудио: AC-3 | 448 Kbps | 2 ch | 48.0 KHzВырезал я.

    Отчёт MediaInfo / BDInfo

    GeneralUnique ID : 204330561410104906981358466943226519687 (0x99B8A27A36729D7F3E86C08EAB30A087)Complete name : 30 Seconds to Mars • ROCK am RING (07.06.2013) [SWR HD].mkvFormat : MatroskaFormat version : Version 2File size : 1.16 GiBDuration : 12mn 58sOverall bit rate : 12.8 MbpsWriting application : Lavf52.64.2Writing library : Lavf52.64.2
    VideoID : 1Format : AVCFormat/Info : Advanced Video CodecFormat profile : High@L3.2Format settings, CABAC : YesFormat settings, ReFrames : 4 framesCodec ID : V_MPEG4/ISO/AVCDuration : 12mn 58sBit rate : 12.1 MbpsWidth : 1 280 pixelsHeight : 720 pixelsDisplay aspect ratio : 16:9Frame rate mode : ConstantFrame rate : 50.000 fpsColor space : YUVChroma subsampling : 4:2:0Bit depth : 8 bitsScan type : ProgressiveBits/(Pixel*Frame) : 0.262Stream size : 1.09 GiB (94%)Default : YesForced : No
    AudioID : 2Format : AC-3Format/Info : Audio Coding 3Mode extension : CM (complete main)Format settings, Endianness : BigCodec ID : A_AC3Duration : 12mn 58sBit rate mode : ConstantBit rate : 448 KbpsChannel(s) : 2 channelsChannel positions : Front: L RSampling rate : 48.0 KHzBit depth : 16 bitsCompression mode : LossyStream size : 41.6 MiB (4%)Language : GermanDefault : YesForced : No

    Скриншоты

    Скачать .torrent

    Скачать торрент-файл бесплатно и на максимальной скорости!

    Как скачивать? · Что такое торрент? · Рейтинг и ограничения

    !ВНИМАНИЕ!
    Сайт не распространяет и не хранит электронные версии произведений, а занимается лишь лишь предоставлением доступа к создаваемому пользователями каталогу ссылок на торрент-файлы, которые содержат только списки хеш-сумм, убедительная просьба с жалобами обращаться напрямую к пользователю. Файлы для обмена на трекере предоставлены пользователями сайта, и администрация не несёт ответственности за их содержание. Просьба не заливать файлы, защищенные авторскими правами, а также файлы нелегального содержания!

    [Профиль] [ЛС]
    Показать сообщения:    
    Ответить на тему

    Текущее время: Сегодня, в 00:34

    Часовой пояс: GMT + 2



    Вы не можете начинать темы
    Вы не можете отвечать на сообщения
    Вы не можете редактировать свои сообщения
    Вы не можете удалять свои сообщения
    Вы не можете голосовать в опросах
    Вы не можете прикреплять файлы к сообщениям
    Вы не можете скачивать файлы