BitTorrentTracker PerecTracker.org
BitTorrentTracker PerecTracker.org
    
Регистрация  ·  Вход
 
 · 
Забыли пароль?

  • Омерзительная восьмерка / The Hateful Eight (Квентин Тарантино / Quentin Tarantino) [2015, США, Триллер, драма, криминал, детектив, вестерн, BDRip-AVC] VO (Матвеев) + Original + Sub (rus, eng)

    Ответить на тему
     
    Автор Сообщение

    rechyn

    Создавать темы 09-Мар-2016 16:10

           

    [Цитировать]

    Омерзительная восьмерка / The Hateful Eight«Без хорошей причины сюда не лезут»-Страна: США
    Жанр: триллер, драма, криминал, детектив, вестерн
    Год выпуска: 2015
    Продолжительность: 02:47:46
    Перевод: Одноголосый закадровый (Алексей Матвеев aka Doctor Joker) ! присутствует ненормативная лексика !
    Оригинальная аудиодорожка: английский
    Cубтитры: русские (А.Матвеев), английские
    Навигация по главам: есть
    Режиссёр: Квентин Тарантино / Quentin Tarantino
    В ролях: Курт Расселл, Сэмюэл Л. Джексон, Тим Рот, Майкл Мэдсен, Дженнифер Джейсон Ли, Уолтон Гоггинс, Демиан Бишир, Брюс Дерн, Джеймс Паркс, Дэна Гурье, Зои Белл, Ли Хорсли, Джин Джонс, Кит Джеффресон, Крэйг Старк, Белинда Овино, Ченнинг Татум, Брюс Дель Кастилло
    Описание: США после Гражданской войны. Легендарный охотник за головами Джон Рут по кличке Вешатель конвоирует заключенную. По пути к ним прибиваются еще несколько путешественников. Снежная буря вынуждает компанию искать укрытие в лавке на отшибе, где уже расположилось весьма пестрое общество: генерал конфедератов, мексиканец, ковбой… И один из них — не тот, за кого себя выдает.

    Качество видео: BDRip-AVC (исходник - BDRemux | HATEFUL_8_RMX-BLUEBIRD)
    Формат видео: MKV
    Видео: x264, 1120x406 (2.759:1), 23,976 fps, ~1717 kbps, 0.157 bit/pixel
    Аудио 1: 48 kHz, AC3Dolby Digital, 3/2 (L,C,R,l,r) + LFE ch, ~384 kbps [русский]
    Аудио 2: 48 kHz, AC3 Dolby Digital, 3/2 (L,C,R,l,r) + LFE ch, ~384 kbps [английский]
    Формат субтитров: softsub (SRT)
    MediaInfo | x264 log
    Format : Matroska
    Format version : Version 4 / Version 2
    File size : 2.91 GiB
    Duration : 2h 47mn
    Overall bit rate : 2 486 Kbps
    Movie name : Омерзительная восьмерка / The Hateful Eight (2015) :: AFM ::
    Encoded date : UTC 2016-03-09 05:25:14
    Writing application : mkvmerge v8.3.0 ('Over the Horizon') 32bit
    Writing library : libebml v1.3.1 + libmatroska v1.4.2
    Video
    ID : 1
    Format : AVC
    Format/Info : Advanced Video Codec
    Format profile : High@L4.1
    Format settings, CABAC : Yes
    Format settings, ReFrames : 11 frames
    Codec ID : V_MPEG4/ISO/AVC
    Duration : 2h 47mn
    Bit rate : 1 717 Kbps
    Width : 1 120 pixels
    Height : 406 pixels
    Display aspect ratio : 2.759
    Frame rate mode : Constant
    Frame rate : 23.976 fps
    Color space : YUV
    Chroma subsampling : 4:2:0
    Bit depth : 8 bits
    Scan type : Progressive
    Bits/(Pixel*Frame) : 0.157
    Stream size : 1.96 GiB (67%)
    Title : BDRip by AFM [RuTracker.org]
    Writing library : x264 core 148 r2665+53 6629127 t_mod_Custom [8-bit@all X86_64]
    Encoding settings : cabac=1 / ref=11 / deblock=1:-3:-2 / analyse=0x3:0x113 / me=umh / subme=11 / psy=1 / fade_compensate=0.00 / psy_rd=1.00:0.00 / mixed_ref=1 / me_range=32 / chroma_me=1 / trellis=2 / 8x8dct=1 / cqm=0 / deadzone=21,11 / fast_pskip=0 / chroma_qp_offset=-2 / threads=6 / lookahead_threads=1 / sliced_threads=0 / nr=0 / decimate=0 / interlaced=0 / bluray_compat=0 / constrained_intra=0 / fgo=0 / bframes=15 / b_pyramid=2 / b_adapt=2 / b_bias=0 / direct=3 / weightb=1 / open_gop=0 / weightp=2 / keyint=250 / keyint_min=23 / scenecut=40 / intra_refresh=0 / rc_lookahead=40 / rc=2pass / mbtree=0 / bitrate=1717 / ratetol=1.0 / qcomp=0.65 / qpmin=0:0:0 / qpmax=69:69:69 / qpstep=4 / cplxblur=20.0 / qblur=0.5 / vbv_maxrate=50000 / vbv_bufsize=62500 / nal_hrd=none / filler=0 / ip_ratio=1.35 / pb_ratio=1.30 / aq=1:0.90 / aq-sensitivity=10.00 / aq-factor=1.00:1.00:1.00 / aq2=0 / aq3=0 / zones=235150,241334,q=30
    Language : English
    Default : Yes
    Forced : No
    Audio #1
    ID : 2
    Format : AC-3
    Format/Info : Audio Coding 3
    Mode extension : CM (complete main)
    Format settings, Endianness : Big
    Codec ID : A_AC3
    Duration : 2h 47mn
    Bit rate mode : Constant
    Bit rate : 384 Kbps
    Channel(s) : 6 channels
    Channel positions : Front: L C R, Side: L R, LFE
    Sampling rate : 48.0 KHz
    Compression mode : Lossy
    Stream size : 461 MiB (15%)
    Title : AVO (Matveev) AC3 5.1 ~384 kbps
    Language : Russian
    Default : Yes
    Forced : No
    Audio #2
    ID : 3
    Format : AC-3
    Format/Info : Audio Coding 3
    Mode extension : CM (complete main)
    Format settings, Endianness : Big
    Codec ID : A_AC3
    Duration : 2h 47mn
    Bit rate mode : Constant
    Bit rate : 384 Kbps
    Channel(s) : 6 channels
    Channel positions : Front: L C R, Side: L R, LFE
    Sampling rate : 48.0 KHz
    Compression mode : Lossy
    Stream size : 461 MiB (15%)
    Title : Original, AC3 5.1 ~384 kbps
    Language : English
    Default : No
    Forced : No
    Text #1
    ID : 4
    Format : UTF-8
    Codec ID : S_TEXT/UTF8
    Codec ID/Info : UTF-8 Plain Text
    Language : Russian
    Default : Yes
    Forced : No
    Text #2
    ID : 5
    Format : UTF-8
    Codec ID : S_TEXT/UTF8
    Codec ID/Info : UTF-8 Plain Text
    Language : English
    Default : No
    Forced : No
    Menu
    00:00:00.000 : en:Chapter 01
    00:04:33.523 : en:Chapter 02
    00:11:36.112 : en:Chapter 03
    00:22:01.361 : en:Chapter 04
    00:35:02.433 : en:Chapter 05
    00:43:31.900 : en:Chapter 06
    00:52:12.212 : en:Chapter 07
    00:59:04.499 : en:Chapter 08
    01:08:30.314 : en:Chapter 09
    01:16:10.857 : en:Chapter 10
    01:25:18.446 : en:Chapter 11
    01:35:06.492 : en:Chapter 12
    01:42:20.175 : en:Chapter 13
    01:50:33.335 : en:Chapter 14
    01:59:32.498 : en:Chapter 15
    02:06:43.053 : en:Chapter 16
    02:13:26.623 : en:Chapter 17
    02:19:59.724 : en:Chapter 18
    02:24:17.023 : en:Chapter 19
    02:34:08.113 : en:Chapter 20
    02:39:38.026 : en:Chapter 21
    02:43:22.751 : en:Chapter 22
    02:47:44.679 : en:Chapter 23

    x264

    x264 [info]: frame I:1700 Avg QP:13.63 size: 72821
    x264 [info]: frame P:41742 Avg QP:16.61 size: 20120
    x264 [info]: frame B:197892 Avg QP:19.02 size: 6039
    x264 [info]: consecutive B-frames: 1.1% 0.9% 3.8% 8.5% 15.1% 37.2% 10.8% 5.6% 5.1% 3.0% 2.5% 2.1% 1.6% 1.4% 0.8% 0.5%
    x264 [info]: mb I I16..4: 3.8% 73.4% 22.8%
    x264 [info]: mb P I16..4: 0.4% 5.2% 0.9% P16..4: 33.7% 40.1% 16.4% 0.0% 0.0% skip: 3.3%
    x264 [info]: mb B I16..4: 0.1% 0.5% 0.1% B16..8: 35.3% 21.6% 4.0% direct: 3.9% skip:34.6% L0:47.8% L1:41.9% BI:10.3%
    x264 [info]: 8x8 transform intra:77.9% inter:51.0%
    x264 [info]: direct mvs spatial:98.7% temporal:1.3%
    x264 [info]: coded y,uvDC,uvAC intra: 88.8% 88.2% 73.6% inter: 18.7% 13.4% 6.6%
    x264 [info]: i16 v,h,dc,p: 54% 16% 6% 23%
    x264 [info]: i8 v,h,dc,ddl,ddr,vr,hd,vl,hu: 13% 8% 9% 9% 12% 12% 12% 11% 13%
    x264 [info]: i4 v,h,dc,ddl,ddr,vr,hd,vl,hu: 16% 8% 6% 9% 13% 13% 12% 11% 13%
    x264 [info]: i8c dc,h,v,p: 42% 25% 19% 14%
    x264 [info]: Weighted P-Frames: Y:97.2% UV:0.8%
    x264 [info]: ref P L0: 42.3% 7.3% 17.3% 7.8% 6.4% 5.1% 4.4% 2.6% 2.4% 2.2% 2.1% 0.2% 0.0%
    x264 [info]: ref B L0: 60.2% 14.7% 8.7% 4.6% 3.5% 2.9% 2.5% 1.6% 0.9% 0.4%
    x264 [info]: ref B L1: 87.9% 12.1%
    x264 [info]: kb/s:1715.72

    Скриншоты

    с названием

    Скачать .torrent

    Скачать торрент-файл бесплатно и на максимальной скорости!

    Как скачивать? · Что такое торрент? · Рейтинг и ограничения

    !ВНИМАНИЕ!
    Сайт не распространяет и не хранит электронные версии произведений, а занимается лишь лишь предоставлением доступа к создаваемому пользователями каталогу ссылок на торрент-файлы, которые содержат только списки хеш-сумм, убедительная просьба с жалобами обращаться напрямую к пользователю. Файлы для обмена на трекере предоставлены пользователями сайта, и администрация не несёт ответственности за их содержание. Просьба не заливать файлы, защищенные авторскими правами, а также файлы нелегального содержания!


    _________________
    [Профиль] [ЛС]
    Показать сообщения:    
    Ответить на тему

    Текущее время: Сегодня, в 20:44

    Часовой пояс: GMT + 2



    Вы не можете начинать темы
    Вы не можете отвечать на сообщения
    Вы не можете редактировать свои сообщения
    Вы не можете удалять свои сообщения
    Вы не можете голосовать в опросах
    Вы не можете прикреплять файлы к сообщениям
    Вы не можете скачивать файлы