BitTorrentTracker PerecTracker.org
BitTorrentTracker PerecTracker.org
    
Регистрация  ·  Вход
 
 · 
Забыли пароль?

  • Неприкасаемые / Les Lyonnais (Оливье Маршаль / Olivier Marchal) [2011, Франция, Бельгия, драма, криминал, HDRip] Dub

    Ответить на тему
     
    Автор Сообщение

    rechyn

    Создавать темы 09-Мар-2016 12:05

           

    [Цитировать]

    Неприкасаемые / Les Lyonnais
    Страна: Франция, Бельгия
    Жанр: драма, криминал
    Год выпуска: 2011
    Продолжительность: 01:42:07
    Перевод: Профессиональный (дублированный) лицензия
    Cубтитры: нет
    Оригинальная аудиодорожка: нет
    Режиссер: Оливье Маршаль / Olivier Marchal
    В ролях: Жерар Ланвен, Чеки Карио, Даниэль Дюваль, Патрик Каталифо, Франсуа Леванталь, Франсис Рено, Лайонел Астье, Валерия Кавалли, Дмитрий Сторож, Эстелл Скорник
    Описание: Детство Эдмонда Видаля прошло в нищете в цыганском таборе. Но он знает, что такое истинные семейные ценности и преданная дружба. Он всегда держит своё слово, даже если даёт его своему врагу. Он верный муж и настоящий друг, готовый всегда помочь в беде. И он не любит проливать кровь зря. Именно он стоял у истоков создания самой известной группировки, которая лихо грабила банки во Франции в начале 70-х...
    Фильм основан на реальных событиях.
    Сезар, 2012 год
    Номинации: Самый многообещающий актер (Дмитрий Сторож)

    Доп. информация: HDRip от Scarabey

    Сэмпл: http://multi-up.com/1092018
    Качество видео: HDRip
    Формат видео: AVI
    Видео: 720x304 (2.37:1), 24.000 fps, XviD build 50 ~1578 kbps avg, 0.30 bit/pixel
    Аудио: 48 kHz, AC3 Dolby Digital, 3/2 (L,C,R,l,r) + LFE ch, ~448.00 kbps avg

    MediaInfo

    Общее
    Полное имя : D:\Les.Lyonnais_2011.HDRip.avi
    Формат : AVI
    Формат/Информация : Audio Video Interleave
    Размер файла : 1,45 Гбайт
    Продолжительность : 1 ч. 42 м.
    Общий поток : 2036 Кбит/сек
    Программа кодирования : VirtualDubMod 1.5.10.2 (build 2540/release)
    Библиотека кодирования : VirtualDubMod build 2540/release
    Видео
    Идентификатор : 0
    Формат : MPEG-4 Visual
    Профиль формата : Advanced Simple@L5
    Параметр BVOP формата : 1
    Параметр QPel формата : Нет
    Параметр GMC формата : Без точки перехода
    Параметр матрицы формата : Выборочная
    Идентификатор кодека : XVID
    Идентификатор кодека/Подсказка : XviD
    Продолжительность : 1 ч. 42 м.
    Битрейт : 1578 Кбит/сек
    Ширина : 720 пикселей
    Высота : 304 пикселя
    Соотношение сторон : 2,35:1
    Частота кадров : 24,000 кадра/сек
    Цветовое пространство : YUV
    Субдискретизация насыщенности : 4:2:0
    Битовая глубина : 8 бит
    Тип развёртки : Прогрессивная
    Метод сжатия : С потерями
    Бит/(Пиксели*Кадры) : 0.300
    Размер потока : 1,13 Гбайт (78%)
    Библиотека кодирования : XviD 1.2.1 (UTC 2008-12-04)
    Аудио
    Идентификатор : 1
    Формат : AC-3
    Формат/Информация : Audio Coding 3
    Расширение режима : CM (complete main)
    Параметр Endianness формата : Big
    Идентификатор кодека : 2000
    Продолжительность : 1 ч. 42 м.
    Вид битрейта : Постоянный
    Битрейт : 448 Кбит/сек
    Каналы : 6 каналов
    Расположение каналов : Front: L C R, Side: L R, LFE
    Частота : 48,0 КГц
    Частота кадров : 31,250 кадров/сек (1536 spf)
    Метод сжатия : С потерями
    Размер потока : 327 Мбайт (22%)
    Выравнивание : Разделение по промежуткам
    Продолжительность промежутка : 42 мс. (1,00 видеокадр)
    Время предзагрузки промежутка : 500 мс.

    Интересные факты

    * Первоначальным выбором Оливье Маршаля на роль Эдмонда Видаля был Ален Делон. Сославшись на занятость в других проектах и спорные моменты в сценарии, легендарный актёр отклонил предложение.
    * Основой для фильма послужила история прогремевшей на всю Францию банды, орудовавшей в 1967-1974 годах в окрестностях Лиона. Её отличительной чертой при грабежах была чистая и бескровная работа без лишнего насилия.
    * В сцене ареста было задействовано 250 участников цыганской массовки.
    * Три предыдущих фильма Оливье Маршаля «Гангстеры» (2002), «Набережная Орфевр, 36» и «Однажды в Марселе» (2008) сталкивались с преступным миром со стороны служителей закона. Здесь же происходит обратная картина и показ его изнутри.
    * Бывший глава преступной банды Эдмонд Видаль в частной беседе сказал, что если о нём будет снят фильм, то его должен поставить именно Оливье Маршаль. Через некоторое время это докатилось до режиссера, послужив отправной точкой для будущего проекта.
    * Изначально режиссер Оливье Маршаль и автор сценария Эдгар Мари задумывали фильм в двух частях аналогично «Врагу государства N1». В конечном счёте, от этого было решено отказаться и соединить в картине оба временных периода.
    * В реальной истории лионской банды грабителей персонаж Сержа Суттела, которого в фильме играет Чеки Карио, не существовал. По словам режиссёра Оливье Маршаля, этот герой был добавлен ради драматической составляющей в картине. Он вобрал в себя черты трёх или четырёх разных людей, которые так или иначе сталкивались с настоящим Момоном.
    * До начала работы над «Неприкасаемыми» Оливье Маршаль проявлял интерес к постановке фильма о другой знаменитой французской банде, действовавшей в окрестностях Парижа. Картину под названием «Бандиты в масках» (2007) снял в итоге Ариэль Зейтун, а главную роль сыграл в ней Венсан Эльбаз.
    * Настоящий Эдмонд Видаль приглашался режиссёром Ольвье Маршалем на съёмочную площадку с тем, чтобы познакомить его с искусством кино. Также по договорённости он при необходимости должен был стать консультантом в отдельные моменты при съёмках.
    * Роль Сержа Суттела должна была достаться Бернару Жиродо, однако из-за проблем со здоровьем актёр вынужден был покинуть проект. Он скончался от рака 17 июля 2010 года, и сам фильм был официально посвящён его памяти. Роль после его вынужденного отказа досталась Чеки Карио.

    Скриншот c названием фильма

    Скриншоты

    Скачать .torrent

    Скачать торрент-файл бесплатно и на максимальной скорости!

    Как скачивать? · Что такое торрент? · Рейтинг и ограничения

    !ВНИМАНИЕ!
    Сайт не распространяет и не хранит электронные версии произведений, а занимается лишь лишь предоставлением доступа к создаваемому пользователями каталогу ссылок на торрент-файлы, которые содержат только списки хеш-сумм, убедительная просьба с жалобами обращаться напрямую к пользователю. Файлы для обмена на трекере предоставлены пользователями сайта, и администрация не несёт ответственности за их содержание. Просьба не заливать файлы, защищенные авторскими правами, а также файлы нелегального содержания!


    _________________
    [Профиль] [ЛС]
    Показать сообщения:    
    Ответить на тему

    Текущее время: Сегодня, в 14:15

    Часовой пояс: GMT + 2



    Вы не можете начинать темы
    Вы не можете отвечать на сообщения
    Вы не можете редактировать свои сообщения
    Вы не можете удалять свои сообщения
    Вы не можете голосовать в опросах
    Вы не можете прикреплять файлы к сообщениям
    Вы не можете скачивать файлы