Register  ·  Log in
Forgot password?

  • Производитель игр / Создатель игр / The Games Maker / El inventor de juegos (Хуан Пабло Бускарини / Juan Pablo Buscarini) [2014, Аргентина, Канада, Италия, фэнтези, приключения, семейный, DVDRip] VO (Вячеслав Прошин) + Original Eng + Sub Rus

    Reply to topic
    Author Message


    Post 09-Mar-2016 13:05



    Производитель игр / Создатель игр / The Games Maker / El inventor de juegos

    Страна: Аргентина, Канада, Италия
    Жанр: фэнтези, приключения, семейный
    Год выпуска: 2014
    Продолжительность: 01:52:40
    Перевод: Одноголосый закадровый (Вячеслав Прошин)
    Cубтитры: русские
    Оригинальная аудиодорожка: английский
    Режиссер: Хуан Пабло Бускарини / Juan Pablo Buscarini
    В ролях: Джозеф Файнс, Томас Кэвэна, Меган Чарпентье, Валентина Лодовини, Роберт Верлак, Алехандро Авада, Эдвард Эснер, Дэвид Мазоуз, Алан Ферраро, Рэймонд Эдвард Ли
    Описание: Новое увлечение юного Ивана Драго, настольные игры, переносит его в фантастический параллельный мир, где он сталкивается с гением создания игр по имени Мородиан, который давно желает уничтожить город Зил, основанный дедом Ивана. Чтобы спасти семью и победить Мородиана, Иван должен узнать, что значит быть настоящим создателем игр.

    Качество видео: DVDRip
    Формат видео: AVI
    Видео: XviD, 720x288, 2.50:1, 1529 kbps, 23.976 fps
    Аудио: RUS, AC3, 2.0, 48 kHz, 192 kbps
    Аудио 2: ENG, AC3, 2.0, 48 kHz, 192 kbps
    Формат субтитров: softsub (SRT)
    Доп. информация о субтитрах: перевод Алексея Крылова


    Complete name : Производитель игр [2014].avi
    Format : AVI
    Format/Info : Audio Video Interleave
    File size : 1.36 GiB
    Duration : 1h 52mn
    Overall bit rate : 1 731 Kbps
    Writing application : VirtualDubMod (build 2550/release)
    Writing library : VirtualDubMod build 2550/release
    ID : 0
    Format : MPEG-4 Visual
    Format profile : Simple@L5
    Format settings, BVOP : No
    Format settings, QPel : No
    Format settings, GMC : No warppoints
    Format settings, Matrix : Default (H.263)
    Codec ID : XVID
    Codec ID/Hint : XviD
    Duration : 1h 52mn
    Bit rate : 1 529 Kbps
    Width : 720 pixels
    Height : 288 pixels
    Display aspect ratio : 2.500
    Frame rate : 23.976 fps
    Color space : YUV
    Chroma subsampling : 4:2:0
    Bit depth : 8 bits
    Scan type : Progressive
    Compression mode : Lossy
    Bits/(Pixel*Frame) : 0.308
    Stream size : 1.20 GiB (88%)
    Writing library : Lavc56.34.100
    ID : 1
    Format : AC-3
    Format/Info : Audio Coding 3
    Mode extension : CM (complete main)
    Format settings, Endianness : Big
    Codec ID : 2000
    Duration : 1h 52mn
    Bit rate mode : Constant
    Bit rate : 192 Kbps
    Channel(s) : 2 channels
    Channel positions : Front: L R
    Sampling rate : 48.0 KHz
    Compression mode : Lossy
    Stream size : 155 MiB (11%)
    Alignment : Split accross interleaves
    Interleave, duration : 42 ms (1.00 video frame)
    Interleave, preload duratio : 500 ms


    Download .torrent

    Download free and at maximum speed!

    How to Download? · What is a torrent? · Ratings and Limitations

    The site does not extend and does not store electronic(digital) versions of products, and only gives access to a reference catalogue created by users on torrent-files which contain only lists of the hash-sums, the earnest entreaty, with complaints(abuse) to access directly to the user. Files for an exchange on tracker are given by users of a site, and the administration does not bear the responsibility for their maintenance. The request to not fill in the files protected by copyrights, and also files of the illegal maintenance!

    [Profile] [PM]
    Display posts from previous:    
    Reply to topic

    The time now is: Today 22:10

    All times are GMT + 3 Hours

    You cannot post new topics in this forum
    You cannot reply to topics in this forum
    You cannot edit your posts in this forum
    You cannot delete your posts in this forum
    You cannot vote in polls in this forum
    You cannot attach files in this forum
    You cannot download files in this forum