BitTorrentTracker PerecTracker.org
BitTorrentTracker PerecTracker.org
    
Регистрация  ·  Вход
 
 · 
Забыли пароль?

  • Производитель игр / Создатель игр / The Games Maker / El inventor de juegos (Хуан Пабло Бускарини / Juan Pablo Buscarini) [2014, Аргентина, Канада, Италия, фэнтези, приключения, семейный, DVDRip] VO (Вячеслав Прошин) + Original Eng + Sub Rus

    Ответить на тему
     
    Автор Сообщение

    rechyn

    Создавать темы 09-Мар-2016 12:05

           

    [Цитировать]

    Производитель игр / Создатель игр / The Games Maker / El inventor de juegos

    Страна: Аргентина, Канада, Италия
    Жанр: фэнтези, приключения, семейный
    Год выпуска: 2014
    Продолжительность: 01:52:40
    Перевод: Одноголосый закадровый (Вячеслав Прошин)
    Cубтитры: русские
    Оригинальная аудиодорожка: английский
    Режиссер: Хуан Пабло Бускарини / Juan Pablo Buscarini
    В ролях: Джозеф Файнс, Томас Кэвэна, Меган Чарпентье, Валентина Лодовини, Роберт Верлак, Алехандро Авада, Эдвард Эснер, Дэвид Мазоуз, Алан Ферраро, Рэймонд Эдвард Ли
    Описание: Новое увлечение юного Ивана Драго, настольные игры, переносит его в фантастический параллельный мир, где он сталкивается с гением создания игр по имени Мородиан, который давно желает уничтожить город Зил, основанный дедом Ивана. Чтобы спасти семью и победить Мородиана, Иван должен узнать, что значит быть настоящим создателем игр.

    Сэмпл: https://yadi.sk/i/O90IzyTIpxKND
    Качество видео: DVDRip
    Формат видео: AVI
    Видео: XviD, 720x288, 2.50:1, 1529 kbps, 23.976 fps
    Аудио: RUS, AC3, 2.0, 48 kHz, 192 kbps
    Аудио 2: ENG, AC3, 2.0, 48 kHz, 192 kbps
    Формат субтитров: softsub (SRT)
    Доп. информация о субтитрах: перевод Алексея Крылова

    MediaInfo

    General
    Complete name : Производитель игр [2014].avi
    Format : AVI
    Format/Info : Audio Video Interleave
    File size : 1.36 GiB
    Duration : 1h 52mn
    Overall bit rate : 1 731 Kbps
    Writing application : VirtualDubMod 1.5.10.3 (build 2550/release)
    Writing library : VirtualDubMod build 2550/release
    Video
    ID : 0
    Format : MPEG-4 Visual
    Format profile : Simple@L5
    Format settings, BVOP : No
    Format settings, QPel : No
    Format settings, GMC : No warppoints
    Format settings, Matrix : Default (H.263)
    Codec ID : XVID
    Codec ID/Hint : XviD
    Duration : 1h 52mn
    Bit rate : 1 529 Kbps
    Width : 720 pixels
    Height : 288 pixels
    Display aspect ratio : 2.500
    Frame rate : 23.976 fps
    Color space : YUV
    Chroma subsampling : 4:2:0
    Bit depth : 8 bits
    Scan type : Progressive
    Compression mode : Lossy
    Bits/(Pixel*Frame) : 0.308
    Stream size : 1.20 GiB (88%)
    Writing library : Lavc56.34.100
    Audio
    ID : 1
    Format : AC-3
    Format/Info : Audio Coding 3
    Mode extension : CM (complete main)
    Format settings, Endianness : Big
    Codec ID : 2000
    Duration : 1h 52mn
    Bit rate mode : Constant
    Bit rate : 192 Kbps
    Channel(s) : 2 channels
    Channel positions : Front: L R
    Sampling rate : 48.0 KHz
    Compression mode : Lossy
    Stream size : 155 MiB (11%)
    Alignment : Split accross interleaves
    Interleave, duration : 42 ms (1.00 video frame)
    Interleave, preload duratio : 500 ms

    Скриншоты

    Скачать .torrent

    Скачать торрент-файл бесплатно и на максимальной скорости!

    Как скачивать? · Что такое торрент? · Рейтинг и ограничения

    !ВНИМАНИЕ!
    Сайт не распространяет и не хранит электронные версии произведений, а занимается лишь лишь предоставлением доступа к создаваемому пользователями каталогу ссылок на торрент-файлы, которые содержат только списки хеш-сумм, убедительная просьба с жалобами обращаться напрямую к пользователю. Файлы для обмена на трекере предоставлены пользователями сайта, и администрация не несёт ответственности за их содержание. Просьба не заливать файлы, защищенные авторскими правами, а также файлы нелегального содержания!


    _________________
    [Профиль] [ЛС]
    Показать сообщения:    
    Ответить на тему

    Текущее время: Сегодня, в 10:02

    Часовой пояс: GMT + 2



    Вы не можете начинать темы
    Вы не можете отвечать на сообщения
    Вы не можете редактировать свои сообщения
    Вы не можете удалять свои сообщения
    Вы не можете голосовать в опросах
    Вы не можете прикреплять файлы к сообщениям
    Вы не можете скачивать файлы