BitTorrentTracker PerecTracker.org
BitTorrentTracker PerecTracker.org
    
Регистрация  ·  Вход
 
 · 
Забыли пароль?

  • Запах Мандаринки / L\'odeur de la mandarine (Жиль Легран / Gilles Legrand) [2015, Франция, мелодрама, драма, BDRip] AVO (Антон Алексеев)

    Ответить на тему
     
    Автор Сообщение

    rechyn

    Создавать темы 09-Мар-2016 12:05

           

    [Цитировать]

    Запах Мандаринки / L'odeur de la mandarine
    Страна: Франция
    Студия: Davis-Films, Epithète Films, France 3 Cinéma, France Télévisions, La Banque Postale Image 8, Orange Cinéma Séries
    Жанр: Мелодрама, драма
    Год выпуска: 2015
    Продолжительность: 01:50:57
    Перевод: Авторский (одноголосый закадровый) Антон Алексеев
    Cубтитры: нет
    Оригинальная аудиодорожка: нет
    Режиссер: Жиль Легран / Gilles Legrand
    В ролях: Оливье Гурме, Джорджия Скаллет, Дмитрий Сторож, Элен Венсан, Marine Vallee, Фред Улисс, Роман Бутей, Мишель Робен, Alix Bénézech, Юрбен Канселье
    Описание: 1918 год. 22-летняя медсестра Анжела, недавно потерявшая мужа на фронте, одна воспитывает дочь. 48-летний кавалерист Шарль потерял в бою ногу и тихо доживает жизнь в своём поместье. Но волею судеб эти два одиноких сердца встречаются - Анжела устраивается в дом Шарля сиделкой. Постепенно между ними возникает чувство привязанности, которое возвращает Шарлю вкус к жизни, но Анжела оказывается не такой простой и наивной девушкой, как может показаться на первый взгляд...
    Дополнительная информация:
    Автор релиза - ylnian
    Заказ и выкуп голоса Антона Алексеева (перевод - март 2016 г.) - ylnian
    За наложение чистого голоса и сборку дороги спасибо rammzez
    Источник для рипа - BluRay (FRA) - L.odeur.De.La.Mandarine.2015.FRENCH.COMPLETE.BLURAY-4FR


    Сэмпл: https://yadi.sk/i/wbohz3X3py3Cg
    Трейлер: https://www.youtube.com/watch?v=FpdTDx3drHU
    Качество видео: BDRip
    Формат видео: AVI
    Видео: XviD, 720x304 (2,35:1), 23.976 fps, 1435 kbps, 0.273 bit/pixel
    Аудио: Русский AC3, 48000 Гц, 6ch, 448 kbps - AVO

    MediaInfo

    Общее
    Полное имя : E:\Lodeur.de.la.mandarine.2015.BDRip-ylnian.avi
    Формат : AVI
    Формат/Информация : Audio Video Interleave
    Размер файла : 1,47 Гбайт
    Продолжительность : 1 ч. 50 м.
    Общий поток : 1892 Кбит/сек
    Программа кодирования : VirtualDubMod 1.5.10.2 (build 2540/release)
    Библиотека кодирования : VirtualDubMod build 2540/release
    Видео
    Идентификатор : 0
    Формат : MPEG-4 Visual
    Профиль формата : Advanced Simple@L5
    Параметр BVOP формата : 1
    Параметр QPel формата : Нет
    Параметр GMC формата : Без точки перехода
    Параметр матрицы формата : Default (MPEG)
    Идентификатор кодека : XVID
    Идентификатор кодека/Подсказка : XviD
    Продолжительность : 1 ч. 50 м.
    Битрейт : 1435 Кбит/сек
    Ширина : 720 пикселей
    Высота : 304 пикселя
    Соотношение сторон : 2,35:1
    Частота кадров : 23,976 (24000/1001) кадра/сек
    Цветовое пространство : YUV
    Субдискретизация насыщенности : 4:2:0
    Битовая глубина : 8 бит
    Тип развёртки : Прогрессивная
    Метод сжатия : С потерями
    Бит/(Пиксели*Кадры) : 0.273
    Размер потока : 1,11 Гбайт (76%)
    Библиотека кодирования : XviD 67
    Аудио
    Идентификатор : 1
    Формат : AC-3
    Формат/Информация : Audio Coding 3
    Расширение режима : CM (complete main)
    Параметр Endianness формата : Big
    Идентификатор кодека : 2000
    Продолжительность : 1 ч. 50 м.
    Вид битрейта : Постоянный
    Битрейт : 448 Кбит/сек
    Каналы : 6 каналов
    Расположение каналов : Front: L C R, Side: L R, LFE
    Частота : 48,0 КГц
    Частота кадров : 31,250 кадров/сек (1536 spf)
    Метод сжатия : С потерями
    Размер потока : 356 Мбайт (24%)
    Выравнивание : Разделение по промежуткам
    Продолжительность промежутка : 42 мс. (1,00 видеокадр)
    Время предзагрузки промежутка : 500 мс.

    Скриншот c названием фильма

    Скриншоты

    Скачать .torrent

    Скачать торрент-файл бесплатно и на максимальной скорости!

    Как скачивать? · Что такое торрент? · Рейтинг и ограничения

    !ВНИМАНИЕ!
    Сайт не распространяет и не хранит электронные версии произведений, а занимается лишь лишь предоставлением доступа к создаваемому пользователями каталогу ссылок на торрент-файлы, которые содержат только списки хеш-сумм, убедительная просьба с жалобами обращаться напрямую к пользователю. Файлы для обмена на трекере предоставлены пользователями сайта, и администрация не несёт ответственности за их содержание. Просьба не заливать файлы, защищенные авторскими правами, а также файлы нелегального содержания!


    _________________
    [Профиль] [ЛС]
    Показать сообщения:    
    Ответить на тему

    Текущее время: Сегодня, в 12:42

    Часовой пояс: GMT + 2



    Вы не можете начинать темы
    Вы не можете отвечать на сообщения
    Вы не можете редактировать свои сообщения
    Вы не можете удалять свои сообщения
    Вы не можете голосовать в опросах
    Вы не можете прикреплять файлы к сообщениям
    Вы не можете скачивать файлы