BitTorrentTracker PerecTracker.org
BitTorrentTracker PerecTracker.org
    
Регистрация  ·  Вход
 
 · 
Забыли пароль?

  • Ночные движения / Night Moves (Келли Райхардт / Kelly Reichardt) [2013, США, триллер, драма, HDRip] VO (Чадов)

    Ответить на тему
     
    Автор Сообщение

    rechyn

    Создавать темы 09-Мар-2016 12:05

           

    [Цитировать]

    Ночные движения / Night Moves
    Страна: США
    Жанр: триллер, драма
    Год выпуска: 2013
    Продолжительность: 01:52:37
    Перевод: Одноголосый закадровый - Михаил Чадов
    Cубтитры: нет

    Режиссер: Келли Райхардт / Kelly Reichardt
    В ролях: Джесси Айзенберг, Дакота Фаннинг, Питер Сарсгаард, Алиа Шокат, Логан Миллер, Кай Леннокс, Кэтрин Уотерстон, Джеймс ЛеГрос, Отумн Нидалния, Бэрри Дель Шерман
    Описание: Фильм расскажет о трех защитниках окружающей среды, которые медленно, но верно приходят к намерению взорвать дамбу.--Внимание! Присутствует ненормативная лексика.--Качество видео: HDRip
    Формат видео: AVI
    Видео: 656x368 (1.78:1), 23.976 fps, XviD build 73 ~786 kbps avg, 0.14 bit/pixel
    Аудио: 48 kHz, MPEG Layer 3, 2 ch, ~128.00 kbps avg

    MediaInfo

    Общее
    Полное имя : H:\Night.Moves.2013.hdrip_[745]_[teko].avi
    Формат : AVI
    Формат/Информация : Audio Video Interleave
    Размер файла : 744 Мбайт
    Продолжительность : 1 ч. 52 м.
    Общий поток : 924 Кбит/сек
    Программа кодирования : VirtualDubMod 1.5.10.3 | www.virtualdub-fr.org || (build 2550/release)
    Библиотека кодирования : VirtualDubMod build 2550/release
    Видео
    Идентификатор : 0
    Формат : MPEG-4 Visual
    Профиль формата : Advanced Simple@L5
    Параметр BVOP формата : 2
    Параметр QPel формата : Нет
    Параметр GMC формата : Без точки перехода
    Параметр матрицы формата : Выборочная
    Идентификатор кодека : XVID
    Идентификатор кодека/Подсказка : XviD
    Продолжительность : 1 ч. 52 м.
    Битрейт : 787 Кбит/сек
    Ширина : 656 пикселей
    Высота : 368 пикселей
    Соотношение сторон : 16:9
    Частота кадров : 23,976 кадра/сек
    Цветовое пространство : YUV
    Субдискретизация насыщенности : 4:2:0
    Битовая глубина : 8 бит
    Тип развёртки : Прогрессивная
    Метод сжатия : С потерями
    Бит/(Пиксели*Кадры) : 0.136
    Размер потока : 634 Мбайт (85%)
    Библиотека кодирования : XviD 73
    Аудио
    Идентификатор : 1
    Формат : MPEG Audio
    Версия формата : Version 1
    Профиль формата : Layer 3
    Идентификатор кодека : 55
    Идентификатор кодека/Подсказка : MP3
    Продолжительность : 1 ч. 52 м.
    Вид битрейта : Постоянный
    Битрейт : 128 Кбит/сек
    Каналы : 2 канала
    Частота : 48,0 КГц
    Метод сжатия : С потерями
    Размер потока : 103 Мбайт (14%)
    Выравнивание : Соединение по промежуткам
    Продолжительность промежутка : 42 мс. (1,00 видеокадр)
    Время предзагрузки промежутка : 504 мс.
    Библиотека кодирования : LAME3.98r
    Настройки программы : -m s -V 4 -q 2 -lowpass 17 -b 128

    Скриншоты

    Релиз группы:

    -
    -
    Скачать .torrent

    Скачать торрент-файл бесплатно и на максимальной скорости!

    Как скачивать? · Что такое торрент? · Рейтинг и ограничения

    !ВНИМАНИЕ!
    Сайт не распространяет и не хранит электронные версии произведений, а занимается лишь лишь предоставлением доступа к создаваемому пользователями каталогу ссылок на торрент-файлы, которые содержат только списки хеш-сумм, убедительная просьба с жалобами обращаться напрямую к пользователю. Файлы для обмена на трекере предоставлены пользователями сайта, и администрация не несёт ответственности за их содержание. Просьба не заливать файлы, защищенные авторскими правами, а также файлы нелегального содержания!


    _________________
    [Профиль] [ЛС]
    Показать сообщения:    
    Ответить на тему

    Текущее время: Сегодня, в 14:49

    Часовой пояс: GMT + 2



    Вы не можете начинать темы
    Вы не можете отвечать на сообщения
    Вы не можете редактировать свои сообщения
    Вы не можете удалять свои сообщения
    Вы не можете голосовать в опросах
    Вы не можете прикреплять файлы к сообщениям
    Вы не можете скачивать файлы