BitTorrentTracker PerecTracker.org
BitTorrentTracker PerecTracker.org
    
Регистрация  ·  Вход
 
 · 
Забыли пароль?

  • Юбилейный вечер Раймонда Паулса 2016.03.08 [2016, Pop, HDTV 1080i]

    Ответить на тему
     
    Автор Сообщение

    rechyn

    Создавать темы 09-Мар-2016 09:31

           

    [Цитировать]

    Юбилейный вечер Раймонда Паулса 2016.03.08
    Жанр: Pop
    Продолжительность: 02:21:00
    Год выпуска: 2016
    Описание: В концерте, посвященному 80-летнему юбилею маэстро Раймонда Паулса, участвуют и первые исполнители его песен, и те, кто принял от них эстафету. Выступления звезд будет сопровождать оркестр "Фонограф-Симфо-Джаз" под управлением Сергея Жилина.
    Всемирно известный композитор, музыкант и общественный деятель, обладатель самых почетных званий Раймонд Паулс родился в Риге, учился при Латвийской консерватории по классу фортепиано, и еще в студенчестве сочиненные им джазовые композиции и мелодии песен становились популярными. Свой первый ансамбль - камерный эстрадный коллектив "Модо" - Паулс создал в 1971 году. В это же время композитор активно пишет музыку к спектаклям и свой первый мюзикл "Сестра Керри". В 80-е годы началось плодотворное сотрудничество Паулса с известными российскими поэтами: Робертом Рождественским, Андреем Вознесенским, Евгением Евтушенко и Ильей Резником. В результате этого появились песни, которые принесли Маэстро огромную известность и любовь зрителей и стали бесценным вкладом в фонд нашей музыкальной культуры. Сегодня они так же любимы и интересны людям ХХI века, как и их первым слушателям. Их исполняли Алла Пугачева, Валерий Леонтьев и Лайма Вайкуле.
    Алла Пугачева, Валерий Леонтьев, Лайма Вайкуле, Александр Малинин, Григорий Лепс, Ирина Аллегрова, Филипп Киркоров, Ани Лорак, Сергей Лазарев, Emin, Глеб Матвейчук, звезды телепроекта "Голос" Интарс Бусулис, Шариф, Мариам Мерабова и многие другие исполнят песни Маэстро в сопровождении оркестра под управлением Сергея Жилина. Главными звездами в этот вечер станут сам неподражаемый Раймонд Паулс и его музыка, секрета рождения которой пока не определил никто.
    Качество: HDTV 1080i
    Контейнер: TS
    Видео кодек: H.264
    Аудио кодек: AC3, MP2
    Видео: H264; 1920x1080 (16:9); 25.000 fps; ~12.0 Mbps
    Аудио: AC3, 6 channels, 48000Hz, 384 Кбит/сек
    Аудио 2: MP2, 2 channels, 48000Hz, 192 Кбит/сек

    Отчёт MediaInfo / BDInfo

    General
    ID : 1 (0x1)
    Complete name : F:1\Юбилейный вечер Раймонда Паулса 2016.03.08.ts
    Format : MPEG-TS
    File size : 13.1 GiB
    Duration : 2h 21mn
    Overall bit rate mode : Variable
    Overall bit rate : 13.3 Mbps
    Video
    ID : 305 (0x131)
    Menu ID : 20105 (0x4E89)
    Format : AVC
    Format/Info : Advanced Video Codec
    Format profile : High@L4
    Format settings, CABAC : Yes
    Format settings, ReFrames : 4 frames
    Codec ID : 27
    Duration : 2h 21mn
    Bit rate : 12.0 Mbps
    Width : 1 920 pixels
    Height : 1 080 pixels
    Display aspect ratio : 16:9
    Frame rate : 25.000 fps
    Standard : Component
    Color space : YUV
    Chroma subsampling : 4:2:0
    Bit depth : 8 bits
    Scan type : Interlaced
    Scan order : Top Field First
    Bits/(Pixel*Frame) : 0.232
    Stream size : 11.9 GiB (91%)
    Color range : Limited
    Color primaries : BT.709
    Transfer characteristics : BT.709
    Matrix coefficients : BT.709
    Audio #1
    ID : 405 (0x195)
    Menu ID : 20105 (0x4E89)
    Format : AC-3
    Format/Info : Audio Coding 3
    Mode extension : CM (complete main)
    Format settings, Endianness : Big
    Codec ID : 6
    Duration : 2h 21mn
    Bit rate mode : Constant
    Bit rate : 384 Kbps
    Channel(s) : 6 channels
    Channel positions : Front: L C R, Side: L R, LFE
    Sampling rate : 48.0 KHz
    Compression mode : Lossy
    Stream size : 388 MiB (3%)
    Language : Russian
    Audio #2
    ID : 406 (0x196)
    Menu ID : 20105 (0x4E89)
    Format : MPEG Audio
    Format version : Version 1
    Format profile : Layer 2
    Codec ID : 3
    Duration : 2h 21mn
    Bit rate mode : Constant
    Bit rate : 192 Kbps
    Channel(s) : 2 channels
    Sampling rate : 48.0 KHz
    Compression mode : Lossy
    Stream size : 194 MiB (1%)
    Language : Russian

    Скриншоты


    Скачать .torrent

    Скачать торрент-файл бесплатно и на максимальной скорости!

    Как скачивать? · Что такое торрент? · Рейтинг и ограничения

    !ВНИМАНИЕ!
    Сайт не распространяет и не хранит электронные версии произведений, а занимается лишь лишь предоставлением доступа к создаваемому пользователями каталогу ссылок на торрент-файлы, которые содержат только списки хеш-сумм, убедительная просьба с жалобами обращаться напрямую к пользователю. Файлы для обмена на трекере предоставлены пользователями сайта, и администрация не несёт ответственности за их содержание. Просьба не заливать файлы, защищенные авторскими правами, а также файлы нелегального содержания!


    _________________
    [Профиль] [ЛС]
    Показать сообщения:    
    Ответить на тему

    Текущее время: Сегодня, в 14:41

    Часовой пояс: GMT + 2



    Вы не можете начинать темы
    Вы не можете отвечать на сообщения
    Вы не можете редактировать свои сообщения
    Вы не можете удалять свои сообщения
    Вы не можете голосовать в опросах
    Вы не можете прикреплять файлы к сообщениям
    Вы не можете скачивать файлы