BitTorrentTracker PerecTracker.org
BitTorrentTracker PerecTracker.org
    
Регистрация  ·  Вход
 
 · 
Забыли пароль?

  • Непобедимый (Олег Погодин) [2008, Боевик, DVDRip-AVC]

    Ответить на тему
     
    Автор Сообщение

    rechyn

    Создавать темы 08-Мар-2016 19:40

           

    [Цитировать]

    Непобедимый
    Год выпуска: 2008
    Производство: студия «Парк Синема» по заказу «Централ Партнершип»
    Жанр: Боевик
    Продолжительность: ~00:51:00
    Субтитры: нет
    Режиссёр: Олег Погодин
    В ролях: Владимир Епифанцев, Юрий Соломин, Гарри Борд, Вольфганг Раач, Кит Мале, Владимир Турчинский, Сергей Астахов, Владимир Стеклов, Джон-Себастьен Коут, Ольга Фадеева
    Описание: Егор Кремнёв — специальный агент российской разведки. В последнее время его преследуют неудачи: провал боевой операции в Колумбии, где Кремнёв руководил группой захвата, унёс жизни всех его товарищей. Кремнёва обвиняют в этой трагедии. Его лишают командирских полномочий. Теперь он — рядовой агент наблюдения.
    Чтобы реабилитроваться за прошлые провалы и вернуть себе доброе имя, Кремнёв должен доставить задержанного за преступления "против родины" секретаря российского олигарха,Шеринга, который владеет документами сила которых равна атомной бомбе, самая главная ловушка Кремнёва это объект доставки — Шеринг. От влияния своего попутчика Кремневу так просто не избавиться. Это смертельно опасное путешествие изменит обоих: и побеждённого Шеринга, и непобедимого Кремнёва.
    Альтернативная раздача сериала | Сэмпл
    Качество: DVDRip-AVC
    Формат: MKV
    Видео кодек: H.264
    Аудио кодек: AC3
    Видео: MPEG-4 AVC/H.264 / 2500 kbps / 768x418 / 25.000 fps / 0.312 bit/pixel
    Аудио: AC3 / 2 ch / 192 kbps / 48 kHz
    Rip by: greenst

    MI

    General
    Unique ID : 212704092975079713084807699828180361147 (0xA005517541AE967987EFAFFE1F459FBB)
    Complete name : J:\Torrents\1\Непобедимый.2008.x264.DVDRip.(AVC)\01.mkv
    Format : Matroska
    Format version : Version 2
    File size : 1 010 MiB
    Duration : 52mn 25s
    Overall bit rate : 2 694 Kbps
    Encoded date : UTC 2015-04-06 13:06:43
    Writing application : mkvmerge v4.0.0 ('The Stars were mine') сборка от Jun 6 2010 16:18:42
    Writing library : libebml v1.0.0 + libmatroska v1.0.0
    Attachements : cover.jpg
    Video
    ID : 1
    Format : AVC
    Format/Info : Advanced Video Codec
    Format profile : High@L4.1
    Format settings, CABAC : Yes
    Format settings, ReFrames : 7 frames
    Codec ID : V_MPEG4/ISO/AVC
    Duration : 52mn 25s
    Bit rate : 2 500 Kbps
    Width : 768 pixels
    Height : 418 pixels
    Display aspect ratio : 1.85:1
    Frame rate mode : Constant
    Frame rate : 25.000 fps
    Color space : YUV
    Chroma subsampling : 4:2:0
    Bit depth : 8 bits
    Scan type : Progressive
    Bits/(Pixel*Frame) : 0.312
    Stream size : 918 MiB (91%)
    Title : 1 серия
    Writing library : x264 core 130 r2273 b3065e6
    Encoding settings : cabac=1 / ref=7 / deblock=1:-2:-1 / analyse=0x3:0x133 / me=umh / subme=10 / psy=1 / psy_rd=1.00:0.10 / mixed_ref=1 / me_range=24 / chroma_me=1 / trellis=2 / 8x8dct=1 / cqm=0 / deadzone=21,11 / fast_pskip=0 / chroma_qp_offset=-3 / threads=6 / lookahead_threads=1 / sliced_threads=0 / nr=0 / decimate=1 / interlaced=0 / bluray_compat=0 / constrained_intra=0 / bframes=5 / b_pyramid=2 / b_adapt=2 / b_bias=0 / direct=3 / weightb=1 / open_gop=0 / weightp=2 / keyint=250 / keyint_min=23 / scenecut=40 / intra_refresh=0 / rc_lookahead=50 / rc=2pass / mbtree=1 / bitrate=2500 / ratetol=1.0 / qcomp=0.60 / qpmin=10 / qpmax=51 / qpstep=4 / cplxblur=20.0 / qblur=0.5 / ip_ratio=1.40 / aq=1:1.00
    Language : Russian
    Default : Yes
    Forced : No
    Audio
    ID : 2
    Format : AC-3
    Format/Info : Audio Coding 3
    Mode extension : CM (complete main)
    Format settings, Endianness : Big
    Codec ID : A_AC3
    Duration : 52mn 25s
    Bit rate mode : Constant
    Bit rate : 192 Kbps
    Channel(s) : 2 channels
    Channel positions : Front: L R
    Sampling rate : 48.0 KHz
    Frame rate : 31.250 fps (1536 spf)
    Compression mode : Lossy
    Stream size : 72.0 MiB (7%)
    Language : Russian
    Default : Yes
    Forced : No

    Скриншоты

    Скачать .torrent

    Скачать торрент-файл бесплатно и на максимальной скорости!

    Как скачивать? · Что такое торрент? · Рейтинг и ограничения

    !ВНИМАНИЕ!
    Сайт не распространяет и не хранит электронные версии произведений, а занимается лишь лишь предоставлением доступа к создаваемому пользователями каталогу ссылок на торрент-файлы, которые содержат только списки хеш-сумм, убедительная просьба с жалобами обращаться напрямую к пользователю. Файлы для обмена на трекере предоставлены пользователями сайта, и администрация не несёт ответственности за их содержание. Просьба не заливать файлы, защищенные авторскими правами, а также файлы нелегального содержания!


    _________________
    [Профиль] [ЛС]
    Показать сообщения:    
    Ответить на тему

    Текущее время: Сегодня, в 20:29

    Часовой пояс: GMT + 2



    Вы не можете начинать темы
    Вы не можете отвечать на сообщения
    Вы не можете редактировать свои сообщения
    Вы не можете удалять свои сообщения
    Вы не можете голосовать в опросах
    Вы не можете прикреплять файлы к сообщениям
    Вы не можете скачивать файлы