BitTorrentTracker PerecTracker.org
BitTorrentTracker PerecTracker.org
    
Регистрация  ·  Вход
 
 · 
Забыли пароль?

  • [ATV3] Элвин и бурундуки: Грандиозное бурундуключение / Alvin and the Chipmunks: The Road Chip (Уолт Бекер / Walt Becker ) [2015, США, Мультфильм, фэнтези, комедия, приключения, семейный, музыка, BDRip, HD (1080p)] DUB + Original + sub (rus, ukr, eng

    Ответить на тему
     
    Автор Сообщение

    Light

    Создавать темы 08-Мар-2016 19:40

           

    [Цитировать]

    Элвин и бурундуки: Грандиозное бурундуключение / Alvin and the Chipmunks: The Road Chip
    «Fast & furry-ous»
    5.961 / 10 4.30 / 10
    -Год выпуска: 2015
    Страна: США
    Жанр: Мультфильм, фэнтези, комедия, приключения, семейный, музыка
    Продолжительность: 01:32:00
    Перевод: Дублированный (iTunes)
    Оригинальная аудиодорожка: Есть
    Cубтитры: Русские форсированные, Русские, Украинские, Английские
    Режиссёр: Уолт Бекер
    Сценарий: Рэнди Мейем Сингер, Адам Щтикель, Росс Багдасарян
    Продюсер: Дженис Карман, Росс Багдасарян мл., Дэвид МакКимми
    Оператор: Питер Лайонс Коллистер
    Композитор: Марк Мазерсбо
    Художник: Ричард Холлэнд, Пол Келли, Мэри Клер Хэннан
    Монтаж: Райан Фолси
    В ролях: Джейсон Ли, Джастин Лонг, Мэттью Грей Гублер, Джесси МакКартни, Кимберли Уильямс-Пэйсли, Джош Грин, Тони Хейл, Белла Торн, Эдди Стиплз, Кристина Эпплгейт
    Сборы в США: $85 040 997
    Сборы в мире: + $143 915 471 = $228 956 468
    Сборы в России: $3 115 040
    Мировая премьера: 6 декабря 2015
    Премьера (РФ): 14 января 2016, «Двадцатый Век Фокс СНГ»
    Описание: Бурундуки пойдут на всё, чтобы сохранить свою семью, даже на грандиозное бурундуключение по всей Америке!
    Когда Бурундуки видят, что Дэйв берет с собой коробочку с кольцом в поездку в Майами, они отчаянно пытаются помешать ему сделать предложение его девушке – из опасения, что мачеха и сводный брат внесут перемены в их семейную идиллию. Но после того, как их помещают в черный список за хулиганское поведение в самолете, Элвин, Саймон, Теодор и их будущий брат Майлз отправляются в самое важное путешествие в их жизни через всю страну, чтобы успеть помешать помолвке.-Качество исходника: BDRemux (HDClub)
    Качество: BDRip
    Тип: HD (1080p)
    Контейнер: M4V
    Видео: H.264, 1920x1040, 1.85:1, 6 500 Kbps, 23.976 (24000/1001) fps
    Аудио 1: Русский/Дублированный (iTunes), AAC / 2.0 / 156 Kbps / 48.0 KHz
    Аудио 2: Английский/Оригинальная дорожка , AAC / 2.0 / 157 Kbps / 48.0 KHz
    Аудио 3: Украинский/Дублированный (iTunes), AAC / 2.0 / 157 Kbps / 44.1 KHz
    Аудио 4: Русский/Дублированный (iTunes), AC-3 / 5.1 / 384 Kbps / 48.0 KHz
    Аудио 5: Английский/Оригинальная дорожка , AC-3 / 5.1 / 640 Kbps / 48.0 KHz
    Субтитры 1: Русские форсированные
    Субтитры 2: Русские полные
    Субтитры 3: Украинские полные
    Субтитры 4: Английские полные
    -

    iTunes Meta Tags

    Sort Name: Alvin and the Chipmunks: The Road Chip
    XID: Apple:vendor_id:2015-771095
    contentID: 1062421970
    Copyright: © 2015 Twentieth Century Fox Film Corporation. All rights reserved. Alvin and the Chipmunks, the Chipettes and Characters TM & 2015 Bagdasarian Productions, LLC. All rights reserved.
    Screenwriters: Рэнди Мейем Сингер, Адам Щтикель, Росс Багдасарян
    Producers: Дженис Карман, Росс Багдасарян мл., Дэвид МакКимми
    Director: Уолт Бекер
    Cast: Джейсон Ли, Джастин Лонг, Мэттью Грей Гублер, Джесси МакКартни, Кимберли Уильямс-Пэйсли, Джош Грин, Тони Хейл, Белла Торн, Эдди Стиплз, Кристина Эпплгейт, Даниил Эльдаров, Сергей Смирнов
    Studio: 20th Century Fox
    Rating: 3
    Long Description: Бурундуки пойдут на всё, чтобы сохранить свою семью, даже на грандиозное бурундуключение по всей Америке!
    Когда Бурундуки видят, что Дэйв берет с собой коробочку с кольцом в поездку в Майами, они отчаянно пытаются помешать ему сделать предложение его девушке - из опасения, что мачеха и сводный брат внесут перемены в их семейную идиллию. Но после того, как их помещают в черный список за хулиганское поведение в самолете, Элвин, Саймон, Теодор и их будущий брат Майлз отправляются в самое важное путешествие в их жизни через всю страну, чтобы успеть помешать помолвке.
    Description: Бурундуки пойдут на всё, чтобы сохранить свою семью, даже на грандиозное бурундуключение по всей Америке!
    Когда Бурундуки видят, что Дэйв берет с собой коробочку с кольцом в поездку в Майами, они отчаянно пытаются помешать ему сделать предложение его девушке - из опасения, что мачеха и сводный брат внесут перемены в их семейную идиллию. Но после того, как их помещают в черный список за хулиганское поведение в самолете, Элвин, Саймон, Теодор и их будущий брат Майлз отправляются в самое важное путешествие в их жизни через всю страну, чтобы успеть помешать помолвке.
    Release Date: 2015-12-06T08:00:00Z
    Genre: Kids & Family
    Artist: Walt Becker
    Name: Alvin and the Chipmunks: The Road Chip

    MediaInfo

    General
    Complete name : /Users/imac/HandBrake/Alvin and the Chipmunks- The Road Chip (1080p HD).m4v
    Format : MPEG-4
    Codec ID : M4V  (M4V /M4A /mp42/isom)
    File size : 5.14 GiB
    Duration : 1h 32mn
    Overall bit rate mode : Variable
    Overall bit rate : 8 000 Kbps
    Movie name : Alvin and the Chipmunks: The Road Chip
    Performer : Walt Becker
    Director : Уолт Бекер
    Actor : Джейсон Ли / Джастин Лонг / Мэттью Грей Гублер / Джесси МакКартни / Кимберли Уильямс-Пэйсли / Джош Грин / Тони Хейл / Белла Торн / Эдди Стиплз / Кристина Эпплгейт / Даниил Эльдаров / Сергей Смирнов
    Screenplay by : Рэнди Мейем Сингер / Адам Щтикель / Росс Багдасарян
    Producer : Дженис Карман / Росс Багдасарян мл. / Дэвид МакКимми
    Production studio : 20th Century Fox
    Genre : Kids & Family
    ContentType : Short Film
    Description : Бурундуки пойдут на всё, чтобы сохранить свою семью, даже на грандиозное бурундуключение по всей Америке! / Когда Бурундуки видят, что Дэйв берет с собой коробочку с кольцом в поездку в Майами, они отчаянно пытаются помешать ему сделать предложение его девушке - из опасения, что мачеха и сводный брат внесут перемены в их семейную идиллию. Но после того, как их помещают в черный список за хулиганское поведение в самолете, Элвин, Саймон, Теодор и их будущий брат Майлз отправляются в самое важное путешествие в их жизни через всю страну, чтобы успеть помешать помолвке.
    Recorded date : UTC 2015-12-06 08:00:00
    Encoded date : UTC 2016-03-08 14:14:40
    Tagged date : UTC 2016-03-08 14:19:09
    Copyright : © 2015 Twentieth Century Fox Film Corporation. All rights reserved. Alvin and the Chipmunks, the Chipettes and Characters TM & 2015 Bagdasarian Productions, LLC. All rights reserved.
    Cover : Yes
    Rating : None
    Title/Sort : Alvin and the Chipmunks: The Road Chip
    LongDescription : Бурундуки пойдут на всё, чтобы сохранить свою семью, даже на грандиозное бурундуключение по всей Америке! / Когда Бурундуки видят, что Дэйв берет с собой коробочку с кольцом в поездку в Майами, они отчаянно пытаются помешать ему сделать предложение его девушке - из опасения, что мачеха и сводный брат внесут перемены в их семейную идиллию. Но после того, как их помещают в черный список за хулиганское поведение в самолете, Элвин, Саймон, Теодор и их будущий брат Майлз отправляются в самое важное путешествие в их жизни через всю страну, чтобы успеть помешать помолвке.
    AppleStoreCatalogID : 1062421970
    Vendor : Apple:vendor_id:2015-771095
    ContentRating : mpaa|PG|200|
    Video #1
    ID : 1
    Format : AVC
    Format/Info : Advanced Video Codec
    Format profile : High@L4
    Format settings, CABAC : Yes
    Format settings, ReFrames : 4 frames
    Codec ID : avc1
    Codec ID/Info : Advanced Video Coding
    Duration : 1h 32mn
    Source duration : 1h 32mn
    Bit rate : 6 500 Kbps
    Width : 1 920 pixels
    Height : 1 040 pixels
    Display aspect ratio : 1.85:1
    Frame rate mode : Variable
    Frame rate : 23.976 (24000/1001) fps
    Minimum frame rate : 23.974 fps
    Maximum frame rate : 23.981 fps
    Color space : YUV
    Chroma subsampling : 4:2:0
    Bit depth : 8 bits
    Scan type : Progressive
    Bits/(Pixel*Frame) : 0.136
    Stream size : 4.17 GiB (81%)
    Source stream size : 4.17 GiB (81%)
    Title : Main Program
    Writing library : x264 core 142 r2479 dd79a61
    Encoding settings : cabac=1 / ref=4 / deblock=1:-2:-2 / analyse=0x3:0x133 / me=umh / subme=10 / psy=1 / psy_rd=1.00:0.15 / mixed_ref=1 / me_range=32 / chroma_me=1 / trellis=2 / 8x8dct=1 / cqm=0 / deadzone=21,11 / fast_pskip=0 / chroma_qp_offset=-3 / threads=36 / lookahead_threads=8 / sliced_threads=0 / nr=0 / decimate=0 / interlaced=0 / bluray_compat=0 / constrained_intra=0 / bframes=16 / b_pyramid=2 / b_adapt=2 / b_bias=0 / direct=3 / weightb=1 / open_gop=0 / weightp=2 / keyint=240 / keyint_min=24 / scenecut=40 / intra_refresh=0 / rc_lookahead=60 / rc=2pass / mbtree=1 / bitrate=6500 / ratetol=1.0 / qcomp=0.70 / qpmin=0 / qpmax=69 / qpstep=4 / cplxblur=20.0 / qblur=0.5 / vbv_maxrate=25000 / vbv_bufsize=25000 / nal_hrd=none / filler=0 / ip_ratio=1.40 / aq=1:1.00
    Language : English
    Encoded date : UTC 2016-03-08 14:14:40
    Tagged date : UTC 2016-03-08 14:15:00
    Color range : Limited
    Color primaries : BT.709
    Transfer characteristics : BT.709
    Matrix coefficients : BT.709
    Menus : 11,12
    Video #2
    ID : 12
    Format : JPEG
    Codec ID : jpeg
    Duration : 1h 32mn
    Bit rate mode : Variable
    Bit rate : 1 614 bps
    Width : 640 pixels
    Height : 346 pixels
    Display aspect ratio : 1.85:1
    Frame rate mode : Variable
    Frame rate : 0.004 fps
    Minimum frame rate : 0.002 fps
    Maximum frame rate : 0.008 fps
    Color space : YUV
    Chroma subsampling : 4:2:0
    Bit depth : 8 bits
    Compression mode : Lossy
    Bits/(Pixel*Frame) : 1.822
    Stream size : 1.15 MiB (0%)
    Title : Chapter Images
    Language : English
    Default : No
    Encoded date : UTC 2016-03-08 14:15:17
    Tagged date : UTC 2016-03-08 14:15:18
    Menu For : 1
    Audio #1
    ID : 2
    Format : AAC
    Format/Info : Advanced Audio Codec
    Format profile : LC
    Codec ID : 40
    Duration : 1h 32mn
    Bit rate mode : Variable
    Bit rate : 156 Kbps
    Maximum bit rate : 233 Kbps
    Channel(s) : 2 channels
    Channel positions : Front: L R
    Sampling rate : 48.0 KHz
    Frame rate : 46.875 fps (1024 spf)
    Compression mode : Lossy
    Stream size : 103 MiB (2%)
    Title : Russian Stereo
    Language : Russian
    Default : Yes
    Alternate group : 1
    Encoded date : UTC 2016-03-08 14:14:40
    Tagged date : UTC 2016-03-08 14:15:00
    Fallback From : 5
    Subtitles : 7,8
    Menus : 11
    Audio #2
    ID : 3
    Format : AAC
    Format/Info : Advanced Audio Codec
    Format profile : LC
    Codec ID : 40
    Duration : 1h 32mn
    Bit rate mode : Variable
    Bit rate : 157 Kbps
    Maximum bit rate : 246 Kbps
    Channel(s) : 2 channels
    Channel positions : Front: L R
    Sampling rate : 48.0 KHz
    Frame rate : 46.875 fps (1024 spf)
    Compression mode : Lossy
    Stream size : 103 MiB (2%)
    Title : English Stereo
    Language : English
    Default : No
    Alternate group : 1
    Encoded date : UTC 2016-03-08 14:14:40
    Tagged date : UTC 2016-03-08 14:15:00
    Audio #3
    ID : 4
    Format : AAC
    Format/Info : Advanced Audio Codec
    Format profile : LC
    Codec ID : 40
    Duration : 1h 32mn
    Bit rate mode : Variable
    Bit rate : 157 Kbps
    Maximum bit rate : 252 Kbps
    Channel(s) : 2 channels
    Channel positions : Front: L R
    Sampling rate : 44.1 KHz
    Frame rate : 43.066 fps (1024 spf)
    Compression mode : Lossy
    Stream size : 103 MiB (2%)
    Title : Ukrainian Stereo
    Language : Ukrainian
    Default : No
    Alternate group : 1
    Encoded date : UTC 2016-03-08 14:14:40
    Tagged date : UTC 2016-03-08 14:15:00
    Audio #4
    ID : 5
    Format : AC-3
    Format/Info : Audio Coding 3
    Mode extension : CM (complete main)
    Format settings, Endianness : Big
    Codec ID : ac-3
    Duration : 1h 32mn
    Bit rate mode : Constant
    Bit rate : 384 Kbps
    Channel(s) : 6 channels
    Channel positions : Front: L C R, Side: L R, LFE
    Sampling rate : 48.0 KHz
    Frame rate : 31.250 fps (1536 spf)
    Bit depth : 16 bits
    Compression mode : Lossy
    Stream size : 253 MiB (5%)
    Title : Russian DD 5.1
    Language : Russian
    Default : Inherited From: 2
    Alternate group : 1
    Encoded date : UTC 2016-03-08 14:14:40
    Tagged date : UTC 2016-03-08 14:15:00
    Fallback To : 2
    Subtitles : 7,8
    Audio #5
    ID : 6
    Format : AC-3
    Format/Info : Audio Coding 3
    Mode extension : CM (complete main)
    Format settings, Endianness : Big
    Codec ID : ac-3
    Duration : 1h 32mn
    Bit rate mode : Constant
    Bit rate : 640 Kbps
    Channel(s) : 6 channels
    Channel positions : Front: L C R, Side: L R, LFE
    Sampling rate : 48.0 KHz
    Frame rate : 31.250 fps (1536 spf)
    Bit depth : 16 bits
    Compression mode : Lossy
    Stream size : 421 MiB (8%)
    Title : English DD 5.1
    Language : English
    Default : No
    Alternate group : 1
    Encoded date : UTC 2016-03-08 14:14:40
    Tagged date : UTC 2016-03-08 14:15:00
    Text #1
    ID : 7
    Format : Timed Text
    Muxing mode : sbtl
    Codec ID : tx3g
    Duration : 1h 31mn
    Bit rate mode : Variable
    Bit rate : 1 bps
    Stream size : 542 Bytes (0%)
    Title : Russian forced
    Language : Russian
    Default : Yes
    Forced : Yes
    Alternate group : 2
    Encoded date : UTC 2016-03-08 14:14:40
    Tagged date : UTC 2016-03-08 14:14:44
    Subtitles For : 2,5
    Full Alternative : 8
    Text #2
    ID : 8
    Format : Timed Text
    Muxing mode : sbtl
    Codec ID : tx3g
    Duration : 1h 31mn
    Bit rate mode : Variable
    Bit rate : 124 bps
    Stream size : 83.4 KiB (0%)
    Title : Russian full
    Language : Russian
    Default : No
    Forced : No
    Alternate group : 2
    Encoded date : UTC 2016-03-08 14:14:40
    Tagged date : UTC 2016-03-08 14:14:59
    Subtitles For : 2,5
    Forced Alternative : 7
    Text #3
    ID : 9
    Format : Timed Text
    Muxing mode : sbtl
    Codec ID : tx3g
    Duration : 1h 31mn
    Bit rate mode : Variable
    Bit rate : 127 bps
    Stream size : 85.1 KiB (0%)
    Title : Ukrainian full
    Language : Ukrainian
    Default : No
    Forced : No
    Alternate group : 2
    Encoded date : UTC 2016-03-08 14:14:40
    Tagged date : UTC 2016-03-08 14:14:59
    Text #4
    ID : 10
    Format : Timed Text
    Muxing mode : sbtl
    Codec ID : tx3g
    Duration : 1h 31mn
    Bit rate mode : Variable
    Bit rate : 105 bps
    Stream size : 70.7 KiB (0%)
    Title : English full
    Language : English
    Default : No
    Forced : No
    Alternate group : 2
    Encoded date : UTC 2016-03-08 14:14:40
    Tagged date : UTC 2016-03-08 14:15:00
    Menu #1
    00:00:00.000 : Chapter 1
    00:05:35.293 : Chapter 2
    00:08:09.406 : Chapter 3
    00:12:30.583 : Chapter 4
    00:16:40.416 : Chapter 5
    00:20:11.168 : Chapter 6
    00:22:44.697 : Chapter 7
    00:24:56.954 : Chapter 8
    00:27:57.301 : Chapter 9
    00:30:30.912 : Chapter 10
    00:35:27.834 : Chapter 11
    00:39:55.143 : Chapter 12
    00:42:54.947 : Chapter 13
    00:45:58.589 : Chapter 14
    00:49:43.564 : Chapter 15
    00:55:16.647 : Chapter 16
    00:58:12.906 : Chapter 17
    01:01:46.328 : Chapter 18
    01:04:39.084 : Chapter 19
    01:09:26.746 : Chapter 20
    01:13:25.943 : Chapter 21
    01:16:30.961 : Chapter 22
    01:21:39.895 : Chapter 23
    01:25:04.016 : Chapter 24
    Menu #2
    ID : 11
    Codec ID : text
    Duration : 1h 32mn
    Language : English
    Encoded date : UTC 2016-03-08 14:15:00
    Tagged date : UTC 2016-03-08 14:15:00
    Menu For : 2,1
    00:00:00.000 : Chapter 1
    00:05:35.293 : Chapter 2
    00:08:09.406 : Chapter 3
    00:12:30.583 : Chapter 4
    00:16:40.416 : Chapter 5
    00:20:11.168 : Chapter 6
    00:22:44.697 : Chapter 7
    00:24:56.954 : Chapter 8
    00:27:57.301 : Chapter 9
    00:30:30.912 : Chapter 10
    00:35:27.834 : Chapter 11
    00:39:55.143 : Chapter 12
    00:42:54.947 : Chapter 13
    00:45:58.589 : Chapter 14
    00:49:43.564 : Chapter 15
    00:55:16.647 : Chapter 16
    00:58:12.906 : Chapter 17
    01:01:46.328 : Chapter 18
    01:04:39.084 : Chapter 19
    01:09:26.746 : Chapter 20
    01:13:25.943 : Chapter 21
    01:16:30.961 : Chapter 22
    01:21:39.895 : Chapter 23
    01:25:04.016 : Chapter 24
    Bit rate mode : VBR

    x264 лог

    x264 [info]: frame I:1191  Avg QP:16.75  size:221832
    x264 [info]: frame P:37387 Avg QP:20.35  size: 62122
    x264 [info]: frame B:93774 Avg QP:21.26  size: 20202
    x264 [info]: consecutive B-frames:  4.9%  5.6% 25.0% 24.4% 15.4% 21.9%  1.6%  0.3%  0.2%  0.1%  0.0%  0.0%  0.0%  0.1%  0.1%  0.1%  0.4%
    x264 [info]: mb I  I16..4:  9.3% 79.7% 11.0%
    x264 [info]: mb P  I16..4:  3.7% 16.0%  1.3%  P16..4: 47.5% 12.2% 10.7%  0.2%  0.1%    skip: 8.3%
    x264 [info]: mb B  I16..4:  0.4%  1.5%  0.1%  B16..8: 37.1%  6.4%  1.4%  direct: 6.0%  skip:47.0%  L0:40.9% L1:47.5% BI:11.6%
    x264 [info]: 8x8 transform intra:76.4% inter:71.7%
    x264 [info]: direct mvs  spatial:98.3% temporal:1.7%
    x264 [info]: coded y,uvDC,uvAC intra: 73.3% 86.5% 63.6% inter: 17.3% 27.0% 13.2%
    x264 [info]: i16 v,h,dc,p: 24% 16%  8% 52%
    x264 [info]: i8 v,h,dc,ddl,ddr,vr,hd,vl,hu: 13% 12%  8%  8% 11% 12% 12% 12% 12%
    x264 [info]: i4 v,h,dc,ddl,ddr,vr,hd,vl,hu: 13% 11%  4%  9% 15% 14% 13% 10% 11%
    x264 [info]: i8c dc,h,v,p: 40% 21% 19% 20%
    x264 [info]: Weighted P-Frames: Y:1.9% UV:1.5%
    x264 [info]: ref P L0: 55.9% 10.6% 22.7%  8.3%  2.5%  0.0%
    x264 [info]: ref B L0: 83.6% 13.3%  3.1%
    x264 [info]: ref B L1: 92.3%  7.7%
    x264 [info]: kb/s:6494.28

    Скриншоты

    -

    Релиз подготовлен для просмотра на Apple TV, iPad, iPhone, iPod Touch.
    Для просмотра данного релиза на компьютере с ОС Windows рекомендуется использовать VLC media player
    Скачать .torrent

    Скачать торрент-файл бесплатно и на максимальной скорости!

    Как скачивать? · Что такое торрент? · Рейтинг и ограничения

    !ВНИМАНИЕ!
    Сайт не распространяет и не хранит электронные версии произведений, а занимается лишь лишь предоставлением доступа к создаваемому пользователями каталогу ссылок на торрент-файлы, которые содержат только списки хеш-сумм, убедительная просьба с жалобами обращаться напрямую к пользователю. Файлы для обмена на трекере предоставлены пользователями сайта, и администрация не несёт ответственности за их содержание. Просьба не заливать файлы, защищенные авторскими правами, а также файлы нелегального содержания!


    _________________
    [Профиль] [ЛС]
    Показать сообщения:    
    Ответить на тему

    Текущее время: Сегодня, в 01:27

    Часовой пояс: GMT + 2



    Вы не можете начинать темы
    Вы не можете отвечать на сообщения
    Вы не можете редактировать свои сообщения
    Вы не можете удалять свои сообщения
    Вы не можете голосовать в опросах
    Вы не можете прикреплять файлы к сообщениям
    Вы не можете скачивать файлы