BitTorrentTracker PerecTracker.org
BitTorrentTracker PerecTracker.org
    
Регистрация  ·  Вход
 
 · 
Забыли пароль?

  • Стражи Галактики / Guardians of the Galaxy (Джеймс Ганн / James Gunn) [2014, США, Фантастика, боевик, приключения, BDRip] Dub

    Ответить на тему
     
    Автор Сообщение

    rechyn

    Создавать темы 08-Мар-2016 03:08

           

    [Цитировать]

    Стражи Галактики / Guardians of the Galaxy
    «Мстители спасают лишь Землю бренную, а эти ребята спасают Вселенную»
    -Год выпуска: 2014
    Выпущено: США, Великобритания / Marvel Enterprises
    Жанр: фантастика, боевик, приключения
    Продолжительность: 02:01:08
    Перевод: Профессиональный (полное дублирование)
    Cубтитры: нет-Режиссер:
    Джеймс Ганн / James Gunn-В ролях:
    Крис Пратт (Peter Quill), Зои Салдана (Gamora), Дэйв Батиста (Drax), Брэдли Купер (Rocket, озвучка), Вин Дизель (Groot, озвучка), Ли Пейс (Ronan), Майкл Рукер (Yondu Udonta), Карен Гиллан (Nebula), Гленн Клоуз (Nova Prime), Джимон Хонсу (Korath), Джон Си Райли (Corpsman Dey), Бенисио Дель Торо (The Collector)-О фильме:
    Отважному путешественнику Питеру Квиллу попадает в руки таинственный артефакт, принадлежащий могущественному и безжалостному злодею Ронану, строящему коварные планы по захвату Вселенной. Питер оказывается в центре межгалактической охоты, где жертва — он сам.
    Единственный способ спасти свою жизнь — объединиться с четверкой нелюдимых изгоев: воинственным енотом по кличке Ракета, человекоподобным деревом Грутом, смертельно опасной Гаморой и одержимым жаждой мести Драксом, также известным как Разрушитель. Когда Квилл понимает, какой силой обладает украденный артефакт и какую опасность он представляет для вселенной, одиночка пойдет на все, чтобы сплотить случайных союзников для решающей битвы за судьбу галактики.-Релиз групп
    | | IMDB | КиноПоиск | Сэмпл |-Качество: BDRip [BDRemux | 1080p | HDCLUB]
    Формат: AVI
    Видео: 720x304 (2.37:1), 23.976 fps, XviD build 73 ~1331 kbps avg, 0.25 bit/pixel
    Аудио: 48 kHz, AC3 Dolby Digital, 3/2 (L,C,R,l,r) + LFE ch, ~384.00 kbps avg-

    Скриншоты

    MediaInfo

    General
    Complete name                            : D:\Strazhi_Galaktiki_2014_BDRip_by_Dalemake.avi
    Format                                   : AVI
    Format/Info                              : Audio Video Interleave
    File size                                : 1.46 GiB
    Duration                                 : 2h 1mn
    Overall bit rate                         : 1 725 Kbps
    Writing application                      : VirtualDubMod 1.5.10.3 | www.virtualdub-fr.org || (build 2550/release)
    Writing library                          : VirtualDubMod build 2550/release
    Video
    ID                                       : 0
    Format                                   : MPEG-4 Visual
    Format profile                           : Advanced Simple@L5
    Format settings, BVOP                    : 1
    Format settings, QPel                    : No
    Format settings, GMC                     : No warppoints
    Format settings, Matrix                  : Custom
    Codec ID                                 : XVID
    Codec ID/Hint                            : XviD
    Duration                                 : 2h 1mn
    Bit rate                                 : 1 332 Kbps
    Width                                    : 720 pixels
    Height                                   : 304 pixels
    Display aspect ratio                     : 2.35:1
    Frame rate                               : 23.976 (23976/1000) fps
    Color space                              : YUV
    Chroma subsampling                       : 4:2:0
    Bit depth                                : 8 bits
    Scan type                                : Progressive
    Compression mode                         : Lossy
    Bits/(Pixel*Frame)                       : 0.254
    Stream size                              : 1.13 GiB (77%)
    Writing library                          : XviD 73
    Audio
    ID                                       : 1
    Format                                   : AC-3
    Format/Info                              : Audio Coding 3
    Mode extension                           : CM (complete main)
    Format settings, Endianness              : Big
    Codec ID                                 : 2000
    Duration                                 : 2h 1mn
    Bit rate mode                            : Constant
    Bit rate                                 : 384 Kbps
    Channel(s)                               : 6 channels
    Channel positions                        : Front: L C R, Side: L R, LFE
    Sampling rate                            : 48.0 KHz
    Frame rate                               : 31.250 fps (1536 spf)
    Compression mode                         : Lossy
    Stream size                              : 333 MiB (22%)
    Alignment                                : Split accross interleaves
    Interleave, duration                     : 42 ms (1.00 video frame)
    Interleave, preload duration             : 500 ms

    Сравнение

    http://perectracker.org/viewtopic.php?t=5152291 - не для поглощения
    http://screenshotcomparison.com/comparison/164744 - разное наполнение, цветопередача + у меня не плавает кроп)
    -
    Скачать .torrent

    Скачать торрент-файл бесплатно и на максимальной скорости!

    Как скачивать? · Что такое торрент? · Рейтинг и ограничения

    !ВНИМАНИЕ!
    Сайт не распространяет и не хранит электронные версии произведений, а занимается лишь лишь предоставлением доступа к создаваемому пользователями каталогу ссылок на торрент-файлы, которые содержат только списки хеш-сумм, убедительная просьба с жалобами обращаться напрямую к пользователю. Файлы для обмена на трекере предоставлены пользователями сайта, и администрация не несёт ответственности за их содержание. Просьба не заливать файлы, защищенные авторскими правами, а также файлы нелегального содержания!


    _________________
    [Профиль] [ЛС]
    Показать сообщения:    
    Ответить на тему

    Текущее время: Сегодня, в 06:10

    Часовой пояс: GMT + 2



    Вы не можете начинать темы
    Вы не можете отвечать на сообщения
    Вы не можете редактировать свои сообщения
    Вы не можете удалять свои сообщения
    Вы не можете голосовать в опросах
    Вы не можете прикреплять файлы к сообщениям
    Вы не можете скачивать файлы