BitTorrentTracker PerecTracker.org
BitTorrentTracker PerecTracker.org
    
Регистрация  ·  Вход
 
 · 
Забыли пароль?

  • Малыш / Little Boy (Алехандро Гомес Монтеверде / Alejandro Gomez Monteverde) [2015, Мексика, США, драма, военный, BDRip-AVC] MVO + Original + Sub (rus, eng)

    Ответить на тему
     
    Автор Сообщение

    rechyn

    Создавать темы 07-Мар-2016 02:05

           

    [Цитировать]

    Малыш / Little Boy«Believe the impossible»-Страна: Мексика, США
    Жанр: драма, военный
    Год выпуска: 2015
    Продолжительность: 01:46:53
    Перевод: Профессиональный (многоголосый закадровый) (FocusStudio)
    Оригинальная аудиодорожка: английский
    Cубтитры: русские, английские
    Навигация по главам: есть
    Режиссёр: Алехандро Гомес Монтеверде / Alejandro Gomez Monteverde
    В ролях: Джейкоб Сальвати, Эмили Уотсон, Кэри-Хироюки Тагава, Майкл Рапапорт, Дэвид Генри, Бен Чаплин, Эдуардо Верастеги, Тед Левайн, Эли Ландри, Абрахам Бенруби
    Описание: Простой американский ребенок пытается сделать невозможное — он хочет, чтобы его отец вернулся со Второй Мировой войны...

    Качество видео: BDRip-AVC (исходник - BDRemux)
    Формат видео: MKV
    Видео: x264, 1152x480 (2.40:1), 23,976 fps, ~3127 kbps, 0.236 bit/pixel
    Аудио 1: 48 kHz, AC3Dolby Digital, 3/2 (L,C,R,l,r) + LFE ch, ~384 kbps [русский]
    Аудио 2: 48 kHz, AC3 Dolby Digital, 3/2 (L,C,R,l,r) + LFE ch, ~384 kbps [английский]
    Формат субтитров: softsub (SRT)
    MediaInfo | x264 log
    Format : Matroska
    Format version : Version 4 / Version 2
    File size : 2.91 GiB
    Duration : 1h 46mn
    Overall bit rate : 3 892 Kbps
    Movie name : Малыш / Little Boy (2015) :: AFM ::
    Encoded date : UTC 2016-03-06 09:04:47
    Writing application : mkvmerge v8.3.0 ('Over the Horizon') 32bit
    Writing library : libebml v1.3.1 + libmatroska v1.4.2
    Video
    ID : 1
    Format : AVC
    Format/Info : Advanced Video Codec
    Format profile : High@L4.1
    Format settings, CABAC : Yes
    Format settings, ReFrames : 10 frames
    Codec ID : V_MPEG4/ISO/AVC
    Duration : 1h 46mn
    Bit rate : 3 127 Kbps
    Width : 1 152 pixels
    Height : 480 pixels
    Display aspect ratio : 2.40:1
    Frame rate mode : Constant
    Frame rate : 23.976 fps
    Color space : YUV
    Chroma subsampling : 4:2:0
    Bit depth : 8 bits
    Scan type : Progressive
    Bits/(Pixel*Frame) : 0.236
    Stream size : 2.27 GiB (78%)
    Title : BDRip by AFM [RuTracker.org]
    Writing library : x264 core 148 r2665+53 6629127 t_mod_Custom [8-bit@all X86_64]
    Encoding settings : cabac=1 / ref=10 / deblock=1:-3:-3 / analyse=0x3:0x113 / me=umh / subme=11 / psy=1 / fade_compensate=0.00 / psy_rd=1.00:0.00 / mixed_ref=1 / me_range=32 / chroma_me=1 / trellis=2 / 8x8dct=1 / cqm=0 / deadzone=21,11 / fast_pskip=0 / chroma_qp_offset=-2 / threads=6 / lookahead_threads=1 / sliced_threads=0 / nr=0 / decimate=0 / interlaced=0 / bluray_compat=0 / constrained_intra=0 / fgo=0 / bframes=13 / b_pyramid=2 / b_adapt=2 / b_bias=0 / direct=3 / weightb=1 / open_gop=0 / weightp=2 / keyint=250 / keyint_min=23 / scenecut=40 / intra_refresh=0 / rc_lookahead=40 / rc=2pass / mbtree=0 / bitrate=3127 / ratetol=1.0 / qcomp=0.65 / qpmin=0:0:0 / qpmax=69:69:69 / qpstep=4 / cplxblur=20.0 / qblur=0.5 / vbv_maxrate=50000 / vbv_bufsize=62500 / nal_hrd=none / filler=0 / ip_ratio=1.35 / pb_ratio=1.30 / aq=1:0.80 / aq-sensitivity=10.00 / aq-factor=1.00:1.00:1.00 / aq2=0 / aq3=0
    Language : English
    Default : Yes
    Forced : No
    Audio #1
    ID : 2
    Format : AC-3
    Format/Info : Audio Coding 3
    Mode extension : CM (complete main)
    Format settings, Endianness : Big
    Codec ID : A_AC3
    Duration : 1h 46mn
    Bit rate mode : Constant
    Bit rate : 384 Kbps
    Channel(s) : 6 channels
    Channel positions : Front: L C R, Side: L R, LFE
    Sampling rate : 48.0 KHz
    Compression mode : Lossy
    Stream size : 294 MiB (10%)
    Title : MVO, AC3 5.1 ~384 kbps
    Language : Russian
    Default : Yes
    Forced : No
    Audio #2
    ID : 3
    Format : AC-3
    Format/Info : Audio Coding 3
    Mode extension : CM (complete main)
    Format settings, Endianness : Big
    Codec ID : A_AC3
    Duration : 1h 46mn
    Bit rate mode : Constant
    Bit rate : 384 Kbps
    Channel(s) : 6 channels
    Channel positions : Front: L C R, Side: L R, LFE
    Sampling rate : 48.0 KHz
    Compression mode : Lossy
    Stream size : 294 MiB (10%)
    Title : Original, AC3 5.1 ~384 kbps
    Language : English
    Default : No
    Forced : No
    Text #1
    ID : 4
    Format : UTF-8
    Codec ID : S_TEXT/UTF8
    Codec ID/Info : UTF-8 Plain Text
    Language : Russian
    Default : Yes
    Forced : No
    Text #2
    ID : 5
    Format : UTF-8
    Codec ID : S_TEXT/UTF8
    Codec ID/Info : UTF-8 Plain Text
    Language : English
    Default : No
    Forced : No
    Menu
    00:00:00.000 : en:Chapter 1
    00:04:17.215 : en:Chapter 2
    00:09:29.860 : en:Chapter 3
    00:16:54.763 : en:Chapter 4
    00:21:36.962 : en:Chapter 5
    00:27:01.745 : en:Chapter 6
    00:33:18.913 : en:Chapter 7
    00:38:45.364 : en:Chapter 8
    00:42:30.005 : en:Chapter 9
    00:47:38.230 : en:Chapter 10
    00:50:35.615 : en:Chapter 11
    00:55:34.998 : en:Chapter 12
    01:02:40.006 : en:Chapter 13
    01:07:49.023 : en:Chapter 14
    01:12:28.260 : en:Chapter 15
    01:19:20.756 : en:Chapter 16
    01:24:06.166 : en:Chapter 17
    01:28:39.439 : en:Chapter 18
    01:32:51.941 : en:Chapter 19
    01:37:46.986 : en:Chapter 20

    x264

    x264 [info]: frame I:1590 Avg QP:17.15 size: 98737
    x264 [info]: frame P:32418 Avg QP:19.60 size: 31302
    x264 [info]: frame B:119760 Avg QP:21.78 size: 11111
    x264 [info]: consecutive B-frames: 2.3% 2.5% 11.1% 13.4% 15.2% 40.1% 6.1% 2.3% 1.7% 1.6% 1.2% 1.1% 0.6% 1.0%
    x264 [info]: mb I I16..4: 4.6% 80.0% 15.5%
    x264 [info]: mb P I16..4: 0.3% 7.9% 0.8% P16..4: 31.3% 36.2% 14.5% 0.0% 0.0% skip: 9.0%
    x264 [info]: mb B I16..4: 0.0% 0.7% 0.1% B16..8: 34.5% 18.4% 3.8% direct: 6.0% skip:36.5% L0:43.5% L1:42.8% BI:13.6%
    x264 [info]: 8x8 transform intra:86.0% inter:57.3%
    x264 [info]: direct mvs spatial:97.8% temporal:2.2%
    x264 [info]: coded y,uvDC,uvAC intra: 93.8% 90.3% 78.6% inter: 29.4% 25.3% 14.4%
    x264 [info]: i16 v,h,dc,p: 42% 16% 11% 30%
    x264 [info]: i8 v,h,dc,ddl,ddr,vr,hd,vl,hu: 9% 7% 8% 10% 14% 13% 13% 12% 13%
    x264 [info]: i4 v,h,dc,ddl,ddr,vr,hd,vl,hu: 10% 7% 4% 10% 16% 15% 14% 12% 13%
    x264 [info]: i8c dc,h,v,p: 48% 18% 14% 19%
    x264 [info]: Weighted P-Frames: Y:97.0% UV:2.1%
    x264 [info]: ref P L0: 45.0% 11.4% 19.2% 6.4% 5.5% 3.5% 3.5% 1.7% 1.7% 1.6% 0.4% 0.0%
    x264 [info]: ref B L0: 67.7% 14.0% 7.0% 3.8% 2.6% 2.1% 1.8% 0.7% 0.3%
    x264 [info]: ref B L1: 91.3% 8.7%
    x264 [info]: kb/s:3121.49

    Скриншоты

    с названием

    Скачать .torrent

    Скачать торрент-файл бесплатно и на максимальной скорости!

    Как скачивать? · Что такое торрент? · Рейтинг и ограничения

    !ВНИМАНИЕ!
    Сайт не распространяет и не хранит электронные версии произведений, а занимается лишь лишь предоставлением доступа к создаваемому пользователями каталогу ссылок на торрент-файлы, которые содержат только списки хеш-сумм, убедительная просьба с жалобами обращаться напрямую к пользователю. Файлы для обмена на трекере предоставлены пользователями сайта, и администрация не несёт ответственности за их содержание. Просьба не заливать файлы, защищенные авторскими правами, а также файлы нелегального содержания!


    _________________
    [Профиль] [ЛС]
    Показать сообщения:    
    Ответить на тему

    Текущее время: Сегодня, в 02:47

    Часовой пояс: GMT + 2



    Вы не можете начинать темы
    Вы не можете отвечать на сообщения
    Вы не можете редактировать свои сообщения
    Вы не можете удалять свои сообщения
    Вы не можете голосовать в опросах
    Вы не можете прикреплять файлы к сообщениям
    Вы не можете скачивать файлы